<svg xmlns="http://www.w3.org/2000/svg">
<defs>
<font horiz-adv-x="2048" id="EmbeddedFont_3" horiz-origin-x="0" horiz-origin-y="0" vert-origin-x="45" vert-origin-y="90" vert-adv-y="90">
<font-face id="font-face3233" descent="556" ascent="1773" font-style="italic" font-weight="bold" units-per-em="2048" font-family="Gentium Book Basic embedded"/>
<missing-glyph id="missing-glyph3235" d="M 0,0 L 2047,0 2047,2047 0,2047 0,0 Z" horiz-adv-x="2048"/>
<glyph id="glyph3237" d="M 1428,860 C 1428,842 1426,823 1421,802 1416,781 1407,757 1396,728 1384,699 1368,666 1349,627 1330,588 1306,542 1277,489 1248,436 1214,374 1175,303 1136,232 1090,151 1039,58 1035,56 1028,53 1019,48 1009,43 998,37 986,30 973,23 960,16 946,9 932,1 919,-6 906,-13 893,-20 881,-25 871,-30 L 850,-41 807,0 C 792,113 778,215 764,304 749,393 733,468 716,530 701,481 677,419 644,344 611,269 564,177 504,70 500,68 493,64 483,59 472,53 460,46 446,39 432,31 417,23 401,15 385,6 370,-2 356,-10 342,-17 330,-24 319,-30 308,-35 300,-39 295,-41 L 253,0 C 249,38 245,79 241,123 236,167 232,212 227,257 222,302 218,346 213,389 208,432 203,472 199,508 195,543 191,574 188,600 184,626 181,644 178,655 174,673 169,687 164,698 158,709 152,717 146,723 139,729 133,733 126,735 119,736 113,737 107,737 101,737 93,736 82,734 71,731 60,728 49,725 36,722 23,718 8,713 L -16,790 C 13,806 45,823 80,840 115,857 148,872 181,887 213,901 242,913 268,922 294,931 313,936 324,936 343,936 357,925 367,904 376,882 386,847 397,799 400,786 403,767 407,742 411,716 415,687 420,655 424,622 428,588 433,552 437,516 441,481 445,448 448,414 451,383 454,355 457,327 459,305 460,288 487,340 511,392 533,443 555,494 574,542 590,587 606,632 619,674 628,711 637,748 642,779 643,804 658,818 675,833 696,848 717,863 738,878 759,891 780,904 801,914 820,923 839,932 854,936 865,936 868,936 871,931 876,920 880,909 885,894 890,876 895,858 901,837 907,814 913,790 919,766 925,741 930,716 936,692 941,667 946,642 950,620 953,600 963,537 973,478 983,423 993,367 1000,318 1004,277 1033,329 1061,378 1086,424 1111,470 1132,512 1150,549 1168,586 1182,620 1192,649 1202,678 1207,701 1207,719 1207,733 1202,744 1193,752 1183,760 1169,764 1152,764 1143,764 1130,763 1113,760 1096,757 1081,754 1066,749 L 1038,826 C 1063,842 1090,857 1119,870 1148,883 1176,895 1204,905 1231,915 1257,923 1282,928 1306,933 1327,936 1344,936 1355,936 1366,935 1376,934 1386,932 1395,928 1403,923 1410,918 1416,910 1421,900 1426,890 1428,877 1428,860 Z" horiz-adv-x="1430" unicode="w"/>
<glyph id="glyph3239" d="M 933,850 C 928,843 921,832 912,818 903,803 894,787 884,770 874,753 864,735 853,717 842,698 831,682 822,667 812,652 803,639 795,630 787,620 781,615 777,615 764,615 752,619 740,628 728,636 716,645 705,655 693,664 682,673 671,682 660,690 650,694 640,694 623,694 604,687 583,673 562,658 541,638 520,611 499,584 480,551 461,513 442,474 426,431 412,383 398,333 387,283 378,232 369,181 365,128 367,75 356,70 338,63 313,52 288,41 263,29 236,17 209,4 184,-7 161,-18 138,-29 122,-36 114,-41 L 71,0 C 86,71 99,140 112,209 125,278 136,342 145,402 154,461 161,515 166,563 171,611 174,650 174,680 174,695 173,708 171,717 168,726 165,732 162,737 158,741 154,744 149,745 144,746 138,747 133,747 126,747 118,746 108,744 97,741 87,738 77,735 65,732 53,728 40,723 L 21,800 C 40,809 61,818 85,828 109,838 134,848 159,858 184,868 210,878 235,887 260,896 284,905 306,912 328,919 348,925 365,930 382,934 395,936 404,936 423,936 436,929 443,916 450,903 453,878 453,841 453,834 453,825 452,814 451,803 450,791 449,778 447,765 445,751 444,738 442,724 440,711 438,698 470,746 500,786 528,817 555,848 581,872 606,890 630,907 653,919 675,926 697,933 719,936 740,936 752,936 766,933 782,926 798,919 815,911 832,902 849,893 867,883 885,874 902,864 918,856 933,850 Z" horiz-adv-x="928" unicode="r"/>
<glyph id="glyph3241" d="M 577,360 C 580,387 584,417 589,449 594,481 599,513 604,545 609,577 614,608 619,637 624,666 628,692 632,715 613,733 594,748 575,761 556,774 537,781 520,781 493,781 468,775 446,762 424,749 405,732 388,711 371,690 356,666 344,639 331,611 321,583 313,553 305,523 299,494 296,463 292,433 290,405 290,379 290,344 292,313 297,288 302,262 308,241 316,224 324,207 333,195 343,188 352,180 362,176 372,176 381,176 391,179 404,185 417,191 432,201 449,216 466,230 485,249 506,273 527,296 551,325 577,360 Z M 1006,118 C 978,98 950,78 921,59 892,40 864,23 838,8 812,-7 789,-18 768,-28 747,-36 730,-41 718,-41 707,-41 695,-37 680,-31 665,-23 650,-12 636,5 621,22 608,44 596,72 583,99 575,134 570,176 548,147 525,119 501,93 476,66 451,43 426,24 400,4 374,-12 347,-24 320,-35 293,-41 266,-41 241,-41 215,-35 188,-22 161,-9 136,11 113,39 90,66 71,102 56,146 41,189 33,242 33,305 33,358 40,409 54,460 67,510 87,558 112,604 137,650 169,693 206,734 243,774 285,810 332,842 368,867 412,889 463,908 514,927 571,936 632,936 660,936 688,930 715,918 742,905 768,891 793,876 818,887 843,898 868,908 892,917 913,927 932,936 L 967,861 C 956,852 946,843 939,836 931,829 924,820 919,811 914,801 909,789 905,775 900,761 896,743 891,720 881,672 872,627 865,584 857,541 851,501 846,465 841,429 837,398 834,371 831,344 830,324 830,309 830,291 831,274 834,257 837,240 841,224 846,211 851,197 856,186 863,178 869,170 876,166 884,166 897,166 912,168 927,172 942,175 962,183 989,194 L 1006,118 Z" horiz-adv-x="980" unicode="a"/>
</font>
<font horiz-adv-x="2048" id="EmbeddedFont_2" horiz-origin-x="0" horiz-origin-y="0" vert-origin-x="45" vert-origin-y="90" vert-adv-y="90">
<font-face id="font-face3170" descent="556" ascent="1773" font-style="italic" font-weight="normal" units-per-em="2048" font-family="Gentium Book Basic embedded"/>
<missing-glyph id="missing-glyph3172" d="M 0,0 L 2047,0 2047,2047 0,2047 0,0 Z" horiz-adv-x="2048"/>
<glyph id="glyph3174" d="M 464,1313 C 464,1276 456,1238 441,1201 425,1164 405,1128 380,1094 355,1059 328,1027 298,998 267,969 238,944 209,923 L 166,963 C 179,976 192,992 207,1011 221,1030 234,1050 246,1071 258,1092 268,1113 276,1134 284,1156 288,1176 288,1194 288,1223 278,1245 259,1261 240,1276 213,1284 179,1284 L 170,1339 C 177,1346 192,1356 213,1367 234,1378 256,1389 281,1400 305,1410 328,1418 351,1425 374,1432 391,1435 402,1434 420,1422 435,1406 447,1387 458,1367 464,1342 464,1313 Z M 873,1313 C 873,1276 865,1238 849,1201 833,1164 813,1128 788,1094 763,1059 736,1027 706,998 676,969 647,944 619,923 L 576,963 C 589,976 602,992 617,1011 631,1030 644,1050 656,1071 667,1092 677,1113 685,1134 692,1156 696,1176 696,1194 696,1223 686,1245 667,1261 648,1276 622,1284 589,1284 L 580,1339 C 587,1346 602,1356 623,1367 644,1378 666,1389 691,1400 715,1410 739,1418 762,1425 785,1432 801,1435 812,1434 829,1422 844,1406 856,1387 867,1367 873,1342 873,1313 Z" horiz-adv-x="742" unicode="”"/>
<glyph id="glyph3176" d="M 436,1410 C 423,1397 409,1381 395,1363 380,1344 367,1325 355,1304 343,1283 333,1262 326,1240 318,1218 314,1198 314,1179 314,1151 324,1129 343,1113 362,1098 389,1090 423,1090 L 432,1034 C 425,1027 411,1018 390,1007 369,996 346,985 322,975 297,965 274,957 251,950 228,943 210,940 199,941 182,952 167,968 156,988 144,1007 138,1031 138,1060 138,1097 146,1135 162,1173 178,1210 198,1246 223,1280 248,1314 275,1346 305,1375 335,1404 364,1429 393,1450 L 436,1410 Z M 845,1410 C 832,1397 818,1381 804,1363 790,1344 777,1325 765,1304 753,1283 743,1262 736,1240 728,1218 724,1198 724,1179 724,1151 734,1129 753,1113 772,1098 799,1090 832,1090 L 840,1034 C 835,1029 827,1024 816,1017 805,1010 792,1003 777,996 762,989 747,982 730,975 713,968 697,962 682,957 666,952 652,948 639,945 626,942 615,940 608,941 591,952 576,968 565,988 554,1007 548,1031 548,1060 548,1097 556,1135 572,1173 588,1210 608,1246 633,1280 657,1314 684,1346 714,1375 744,1404 773,1429 801,1450 L 845,1410 Z" horiz-adv-x="742" unicode="“"/>
<glyph id="glyph3178" d="M 916,860 C 916,837 909,806 895,767 881,727 860,676 831,614 802,552 765,477 720,390 675,303 623,200 562,82 517,-5 472,-84 428,-156 383,-227 338,-288 291,-340 244,-390 195,-430 144,-458 93,-486 39,-500 -19,-500 -41,-500 -62,-498 -82,-494 -102,-489 -120,-484 -135,-478 -150,-471 -163,-464 -172,-457 -181,-450 -186,-443 -186,-437 -186,-428 -182,-416 -174,-400 -166,-383 -156,-366 -145,-350 -134,-332 -122,-317 -110,-303 -97,-288 -86,-279 -77,-274 -45,-298 -17,-314 7,-321 30,-328 54,-332 79,-332 128,-332 176,-308 224,-260 272,-212 322,-144 374,-55 367,-16 359,28 349,76 339,124 328,174 317,225 305,276 293,326 280,377 267,428 254,475 241,520 228,565 216,605 204,641 192,676 181,704 172,725 157,759 144,781 133,792 122,802 111,807 100,807 94,807 86,806 75,804 64,801 53,798 42,795 29,792 16,788 2,783 L -12,830 C 17,843 45,856 72,869 99,882 125,893 148,903 171,913 192,921 210,927 227,933 241,936 250,936 269,936 284,926 296,907 308,888 322,855 338,809 351,774 364,733 379,686 393,639 407,588 422,534 437,479 451,423 466,364 480,305 493,246 505,187 526,227 546,268 566,309 586,351 605,391 624,431 642,471 659,509 675,545 690,581 704,614 715,643 726,673 735,699 742,721 749,744 752,761 752,772 752,805 734,822 699,822 688,823 675,822 661,818 646,815 629,809 610,801 L 590,848 C 638,876 684,898 727,913 770,928 805,936 831,936 842,936 853,935 864,934 874,932 883,928 891,923 898,918 904,910 909,900 914,890 916,877 916,860 Z" horiz-adv-x="1113" unicode="y"/>
<glyph id="glyph3180" d="M 1316,860 C 1316,842 1314,822 1311,799 1307,776 1300,749 1291,718 1281,686 1268,649 1251,607 1234,564 1212,515 1186,458 1159,401 1127,337 1090,264 1053,191 1009,109 959,16 953,13 945,9 935,4 924,-1 913,-7 902,-12 L 869,-29 C 858,-34 850,-38 843,-41 L 807,-8 C 800,49 792,109 783,173 774,237 765,299 756,360 747,420 737,476 728,527 719,578 710,619 701,650 699,635 694,615 687,589 680,563 670,533 658,500 645,466 631,429 615,390 598,350 581,309 562,268 543,227 523,185 502,144 481,102 459,62 437,25 431,22 422,17 411,11 400,5 388,-1 375,-8 362,-15 350,-21 338,-28 326,-34 317,-38 310,-41 L 276,-8 C 271,29 267,71 262,116 257,161 252,208 247,256 242,303 237,351 232,398 227,445 222,490 217,532 212,573 206,611 201,644 196,677 191,704 186,723 182,741 177,755 172,766 166,777 160,785 154,791 147,797 141,801 134,803 127,804 121,805 115,805 109,805 101,804 90,802 79,799 68,796 57,793 44,790 31,786 16,781 L -1,828 C 28,841 56,855 84,868 111,881 137,892 161,902 184,912 205,920 223,927 241,933 255,936 264,936 283,936 297,925 306,904 315,882 326,847 337,799 341,782 346,757 351,726 356,694 361,659 366,620 371,581 377,540 382,497 387,454 391,414 396,375 400,336 404,300 407,269 410,238 412,214 413,197 440,249 466,305 493,364 519,423 543,481 565,540 586,598 604,654 618,707 632,760 640,808 643,849 654,859 666,869 681,880 695,890 709,899 723,908 737,916 750,923 763,928 776,933 786,936 794,936 797,936 800,931 804,920 808,909 812,894 817,876 822,858 827,837 832,814 837,790 843,766 848,741 853,716 857,692 862,667 867,642 871,620 874,600 879,569 884,535 891,499 897,463 903,427 909,390 914,353 920,317 925,281 930,245 934,211 937,180 982,262 1020,335 1050,399 1080,463 1104,519 1122,568 1139,616 1152,657 1159,692 1166,727 1170,756 1170,779 1170,793 1165,804 1156,812 1146,820 1132,824 1115,824 1106,824 1094,823 1080,820 1065,817 1051,814 1036,809 L 1016,856 C 1039,870 1062,882 1085,893 1108,903 1129,911 1148,918 1167,924 1183,929 1198,932 1213,935 1224,936 1232,936 1243,936 1254,935 1264,934 1274,932 1283,928 1291,923 1298,918 1304,910 1309,900 1314,890 1316,877 1316,860 Z" horiz-adv-x="1323" unicode="w"/>
<glyph id="glyph3182" d="M 1006,81 C 952,45 904,16 862,-7 820,-30 785,-41 757,-41 744,-41 730,-35 717,-24 703,-13 691,5 681,30 671,54 663,86 658,125 653,164 651,211 654,266 627,221 599,180 569,143 539,106 508,73 476,46 443,19 410,-3 376,-18 342,-33 308,-41 274,-41 259,-41 242,-36 224,-26 206,-15 189,0 173,21 157,42 144,67 133,98 122,129 117,164 117,205 117,225 119,250 123,280 126,309 131,341 136,375 141,409 147,444 153,481 159,517 165,552 170,585 175,618 180,648 184,675 187,702 189,723 189,740 189,755 188,768 186,777 184,786 181,792 178,797 174,801 170,804 165,805 160,806 154,807 148,807 142,807 134,806 123,804 112,801 100,798 89,795 76,792 62,788 47,783 L 34,830 C 62,843 92,855 123,868 154,881 183,892 211,902 238,912 263,920 285,927 306,933 322,936 331,936 350,936 363,930 370,917 377,904 380,883 380,852 380,833 378,807 374,776 370,745 365,711 359,674 353,637 347,598 340,559 333,519 327,481 321,444 315,407 310,372 306,341 302,310 300,284 300,265 300,210 307,169 320,144 333,118 349,105 370,105 383,105 399,111 420,123 441,134 464,153 490,180 516,206 545,240 576,282 607,324 639,375 672,436 676,464 681,492 686,521 691,549 695,576 700,603 704,630 708,655 711,678 714,701 715,722 715,740 715,755 714,768 713,777 711,786 708,792 705,797 702,801 698,804 694,805 689,806 684,807 678,807 672,807 664,806 654,804 644,801 634,798 624,795 612,792 600,788 587,783 L 571,830 C 599,843 628,855 658,868 688,881 716,892 743,902 770,912 793,920 814,927 835,933 850,936 860,936 879,936 891,930 897,917 903,904 906,883 906,852 906,833 904,808 900,778 896,747 891,714 886,679 880,643 874,606 867,567 860,528 853,491 848,455 842,418 837,384 833,353 829,321 827,294 827,272 827,211 832,167 841,140 850,113 862,99 879,99 896,99 913,101 930,106 947,110 967,117 991,127 L 1006,81 Z" horiz-adv-x="980" unicode="u"/>
<glyph id="glyph3184" d="M 608,130 C 574,103 540,80 506,59 471,38 439,20 409,5 378,-10 350,-21 325,-29 300,-37 279,-41 263,-41 245,-41 228,-36 211,-26 194,-16 180,-2 167,16 154,33 143,54 135,79 127,104 123,131 123,160 123,173 123,185 124,198 125,211 126,224 127,238 128,251 129,266 131,281 132,296 134,313 137,332 L 212,805 72,805 54,839 161,905 228,905 234,940 C 238,967 242,990 247,1007 251,1024 256,1039 262,1050 267,1061 273,1070 280,1077 287,1084 294,1090 303,1097 L 434,1176 462,1151 C 457,1145 452,1134 447,1119 442,1106 437,1087 431,1062 424,1037 418,1004 411,963 L 402,905 649,905 671,875 C 664,866 655,855 643,844 631,832 619,820 606,809 593,798 580,788 568,779 556,770 547,763 541,760 533,779 518,791 495,797 472,802 437,805 390,805 L 386,805 320,379 C 318,366 316,353 315,339 313,324 312,311 311,298 310,285 309,272 309,261 308,250 308,241 308,234 308,193 315,163 330,144 344,125 360,115 379,115 402,115 430,120 463,130 496,140 537,156 587,179 L 608,130 Z" horiz-adv-x="609" unicode="t"/>
<glyph id="glyph3186" d="M 728,844 C 715,829 702,814 689,800 676,785 663,773 651,762 638,751 627,742 617,735 607,728 599,724 594,724 585,724 575,730 564,743 553,755 541,768 528,783 514,798 498,811 481,824 463,836 443,842 420,842 401,842 384,839 367,833 350,826 336,817 323,806 310,795 300,781 293,765 285,749 281,731 281,712 281,686 293,660 317,635 341,610 380,584 434,559 461,546 489,531 516,515 543,498 567,479 588,458 609,436 627,411 640,384 653,356 660,324 660,289 660,243 648,200 623,160 598,119 566,84 527,55 488,25 445,2 398,-16 351,-32 305,-41 262,-41 227,-41 193,-36 161,-27 128,-17 99,-5 74,10 49,24 29,40 14,57 -1,74 -9,89 -9,103 -9,111 -5,123 4,139 13,155 23,171 34,188 45,204 57,218 69,230 81,242 91,248 98,248 103,248 108,244 114,235 120,226 127,214 135,201 143,187 153,172 164,157 175,141 189,126 205,113 221,99 240,88 262,79 283,70 308,65 337,65 360,65 381,69 401,77 421,85 438,96 453,110 467,124 478,141 487,160 495,179 499,199 499,221 499,246 494,268 483,289 472,310 457,329 439,346 421,363 400,378 377,392 353,406 329,419 304,431 269,448 239,465 216,482 192,499 173,517 158,535 143,553 133,572 127,592 121,611 118,632 118,653 118,695 129,733 151,768 173,803 201,833 236,858 270,883 308,902 350,916 392,929 433,936 473,936 508,936 537,932 562,924 587,916 609,907 628,896 647,885 665,875 681,865 696,855 712,848 728,844 Z" horiz-adv-x="741" unicode="s"/>
<glyph id="glyph3188" d="M 809,850 C 801,839 792,825 781,807 770,789 759,771 748,754 737,737 726,722 716,709 706,696 698,690 691,690 678,690 667,694 658,701 648,708 639,717 630,726 621,735 612,743 604,751 595,758 586,762 576,762 559,762 539,751 517,730 494,709 472,680 449,645 426,609 405,568 385,523 364,478 347,431 333,383 326,358 319,331 314,302 308,273 303,243 299,213 294,182 291,152 289,123 287,93 287,65 288,38 279,33 266,27 251,20 235,13 219,5 202,-2 185,-9 168,-16 153,-24 138,-30 126,-36 118,-41 L 82,-8 C 92,39 102,88 111,138 120,188 129,237 137,286 145,335 153,382 160,428 167,473 173,516 178,556 183,595 186,631 189,663 192,694 193,720 193,740 193,755 192,768 190,777 187,786 184,792 181,797 177,801 173,804 168,805 163,806 157,807 152,807 145,807 137,806 126,804 115,801 103,798 92,795 79,792 66,788 51,783 L 36,830 C 64,843 94,855 125,868 156,881 185,892 213,902 240,912 265,920 287,927 308,933 324,936 333,936 342,936 350,935 355,932 360,929 365,923 368,915 371,906 372,895 373,881 374,866 374,848 374,826 374,819 373,807 372,792 370,776 368,759 366,740 363,721 361,703 358,685 355,666 353,651 351,638 383,699 413,749 442,788 470,827 497,857 522,879 547,901 572,916 595,924 618,932 640,936 661,936 673,936 685,933 696,926 707,919 719,911 731,902 742,893 755,883 768,874 781,864 794,856 809,850 Z" horiz-adv-x="768" unicode="r"/>
<glyph id="glyph3190" d="M 615,790 C 600,790 580,783 555,768 530,753 504,733 477,706 449,679 421,646 394,608 366,570 341,527 319,480 315,454 311,427 306,398 301,369 295,338 290,305 300,286 314,266 332,245 350,224 370,204 393,186 415,168 438,153 463,142 487,130 511,124 534,124 568,124 598,133 623,152 648,170 668,196 683,229 694,252 703,277 710,303 717,329 722,355 725,382 728,408 731,434 732,459 733,484 734,508 734,530 734,573 731,610 724,643 717,676 708,703 697,725 686,746 673,763 659,774 644,785 630,790 615,790 Z M 373,870 C 373,852 371,827 367,796 363,765 357,724 350,674 391,732 429,778 464,813 499,847 532,873 562,892 591,910 618,922 643,928 668,933 690,936 711,936 738,936 763,929 788,916 812,903 833,883 851,857 869,830 883,798 894,760 905,721 910,677 910,627 910,556 900,482 879,404 858,326 827,252 786,181 771,155 753,129 734,103 714,76 693,52 670,31 647,10 622,-8 596,-21 570,-34 543,-41 515,-41 494,-41 473,-35 452,-23 430,-10 409,6 388,27 367,47 346,70 326,97 305,123 286,150 268,178 L 240,6 C 229,-63 220,-122 213,-174 206,-224 202,-268 199,-304 196,-339 194,-368 195,-389 196,-410 198,-426 201,-435 191,-438 178,-442 162,-448 145,-453 128,-459 111,-466 94,-472 77,-478 61,-485 45,-491 33,-496 24,-500 L -11,-469 C -8,-450 -4,-420 3,-380 10,-340 18,-293 28,-240 37,-186 48,-127 59,-64 70,-1 82,64 94,129 105,194 116,259 127,323 138,387 147,446 156,501 164,556 171,604 176,646 181,687 183,719 183,740 183,755 182,768 179,777 176,786 173,792 168,797 163,801 158,804 153,805 148,806 142,807 136,807 130,807 122,806 111,804 100,801 89,798 78,795 65,792 52,788 38,783 L 23,830 C 52,843 82,856 113,869 144,882 174,893 202,903 230,913 255,921 277,927 299,933 315,936 324,936 339,936 351,932 360,923 369,914 373,896 373,870 Z" horiz-adv-x="927" unicode="p"/>
<glyph id="glyph3192" d="M 658,496 C 658,598 640,676 605,731 570,785 522,812 462,812 432,812 405,806 382,794 358,781 337,765 320,745 302,724 287,700 275,673 262,646 252,617 244,587 236,557 230,526 227,495 224,464 222,434 222,406 222,361 227,319 238,280 249,241 263,206 281,177 299,147 320,123 345,106 369,89 395,80 423,80 452,80 477,87 500,100 523,113 543,130 560,152 577,173 592,198 605,227 617,255 627,284 635,315 643,346 649,377 653,408 656,439 658,469 658,496 Z M 831,559 C 831,514 826,469 816,424 805,378 790,334 770,291 750,248 726,207 697,168 668,129 634,94 597,63 580,49 561,36 541,23 521,10 501,-1 480,-11 459,-20 438,-28 417,-33 396,-38 375,-41 355,-41 306,-41 263,-31 225,-12 187,8 155,35 129,70 102,104 82,145 69,192 55,239 48,289 48,344 48,392 52,438 61,483 69,527 82,570 101,612 120,653 144,693 175,731 206,769 243,805 287,840 321,867 360,889 403,908 446,927 488,936 531,936 583,936 628,927 666,908 704,889 735,863 760,830 784,797 802,757 814,711 825,665 831,614 831,559 Z" horiz-adv-x="768" unicode="o"/>
<glyph id="glyph3194" d="M 1001,85 C 971,67 942,50 914,35 885,20 859,6 834,-5 809,-16 787,-25 767,-32 747,-38 730,-41 716,-41 693,-41 674,-30 661,-10 647,12 640,40 640,76 640,88 642,109 647,140 651,170 656,205 663,245 669,284 676,326 684,371 691,416 698,458 705,499 711,540 716,576 721,609 725,642 727,665 727,680 727,727 722,759 713,778 704,797 686,806 659,806 650,806 636,802 617,793 597,784 575,770 550,751 525,732 500,709 473,681 446,652 421,619 398,580 379,548 363,510 352,465 341,420 329,366 318,301 313,271 308,244 305,220 302,196 299,174 298,153 296,132 295,112 295,94 294,75 294,57 295,38 286,33 274,27 258,20 242,13 226,5 209,-2 192,-9 175,-16 160,-24 144,-30 132,-36 124,-41 L 89,-8 C 98,37 108,84 117,134 126,184 134,234 142,285 150,335 158,384 165,432 172,480 178,524 183,565 188,606 192,642 195,673 198,704 199,727 199,742 199,757 198,770 197,779 195,788 193,794 190,799 187,803 183,806 178,807 173,808 168,809 162,809 156,809 147,808 136,805 124,802 112,799 101,796 88,792 73,788 58,783 L 42,832 C 70,844 100,856 131,869 162,881 192,892 220,902 248,912 273,920 294,927 315,933 330,936 339,936 348,936 356,935 361,932 366,929 371,923 374,915 377,907 379,896 380,881 381,866 381,847 381,823 381,816 381,807 380,796 379,785 379,773 378,760 377,747 376,735 375,723 374,711 373,701 372,693 408,736 444,772 481,803 518,834 554,859 589,879 624,898 658,913 691,922 724,931 755,936 785,936 806,936 824,933 841,928 857,922 871,913 882,900 893,887 901,869 907,848 912,826 915,799 915,767 915,744 913,715 909,681 904,647 899,611 892,572 885,533 878,493 871,452 863,411 856,371 849,334 842,297 837,263 833,232 828,201 826,177 826,158 826,135 829,120 835,112 841,103 850,99 862,99 877,99 894,102 913,107 931,112 954,121 982,132 L 1001,85 Z" horiz-adv-x="927" unicode="n"/>
<glyph id="glyph3196" d="M 1447,85 C 1385,49 1330,19 1281,-5 1232,-29 1191,-41 1160,-41 1141,-41 1124,-30 1110,-10 1095,12 1088,40 1088,76 1088,88 1090,109 1095,138 1099,167 1104,201 1111,240 1118,279 1125,320 1133,365 1141,409 1148,452 1155,494 1162,536 1167,575 1172,612 1176,648 1178,677 1178,699 1178,737 1174,764 1166,780 1158,796 1148,804 1136,804 1125,804 1112,800 1095,793 1078,786 1059,774 1038,758 1017,741 994,720 971,694 947,668 923,637 899,600 885,579 873,557 864,536 855,514 847,491 840,467 833,442 828,416 823,388 818,360 812,329 807,295 798,234 792,183 790,142 787,101 787,66 789,38 780,33 767,27 751,20 734,13 717,5 700,-2 683,-9 666,-16 650,-24 634,-30 622,-36 613,-41 L 579,-8 C 594,60 608,130 621,202 634,273 646,341 657,404 667,467 675,524 681,574 687,623 690,660 690,685 690,730 685,761 676,778 667,795 653,804 636,804 629,804 617,800 601,793 585,786 567,774 546,758 525,742 502,721 478,696 454,670 430,639 407,602 394,582 382,561 373,540 364,518 355,495 348,470 341,445 334,418 329,389 323,360 317,329 311,295 301,234 294,183 291,142 288,101 287,66 288,38 279,33 267,27 252,20 236,13 220,5 203,-2 186,-9 169,-16 154,-24 138,-30 126,-36 118,-41 L 82,-8 C 96,63 110,136 123,212 136,288 147,360 158,429 169,498 177,560 184,615 190,670 193,711 193,740 193,755 192,768 190,777 188,786 185,793 182,798 178,803 174,806 169,807 164,808 159,809 154,809 147,809 138,808 127,805 115,802 103,799 92,796 79,792 64,788 49,783 L 36,832 C 64,844 93,856 124,869 155,881 184,892 211,902 238,912 262,920 283,927 304,933 320,936 329,936 339,936 347,934 354,931 360,928 365,922 368,914 371,905 374,894 375,879 376,864 376,844 376,821 376,814 376,806 375,796 374,786 374,775 373,764 372,752 370,740 369,728 368,715 367,704 366,693 405,738 442,777 477,808 511,839 543,864 574,883 605,902 634,915 662,924 690,932 718,936 745,936 770,936 790,931 807,922 824,912 837,899 847,883 857,866 864,848 869,827 873,806 875,785 875,763 875,753 875,744 875,735 874,726 873,716 872,703 911,746 946,782 979,812 1011,841 1041,865 1070,884 1099,902 1126,915 1151,924 1176,932 1202,936 1227,936 1246,936 1264,933 1281,927 1297,920 1311,910 1323,896 1334,882 1343,864 1350,842 1357,819 1360,792 1360,760 1360,735 1358,705 1354,671 1349,636 1344,600 1338,561 1331,522 1324,483 1317,444 1310,404 1303,366 1297,330 1290,293 1285,260 1281,231 1276,201 1274,177 1274,158 1274,135 1277,120 1284,113 1291,105 1300,101 1311,101 1330,101 1349,104 1368,109 1386,114 1409,121 1436,132 L 1447,85 Z" horiz-adv-x="1377" unicode="m"/>
<glyph id="glyph3198" d="M 463,85 C 397,44 341,12 295,-9 248,-30 207,-41 170,-41 151,-41 135,-31 120,-11 105,9 98,39 98,78 98,95 101,123 106,162 111,201 117,248 125,303 132,357 141,417 152,482 162,547 172,614 183,682 193,750 203,817 214,884 224,951 233,1013 241,1071 248,1128 255,1179 260,1224 265,1269 267,1303 267,1326 267,1341 266,1354 263,1363 260,1372 256,1378 251,1383 246,1387 241,1390 235,1391 228,1392 222,1393 216,1393 211,1393 202,1392 191,1389 180,1386 168,1382 157,1379 144,1375 130,1371 115,1366 L 99,1415 C 127,1428 157,1440 188,1453 219,1465 248,1476 276,1486 304,1496 329,1504 351,1511 373,1517 389,1520 399,1520 418,1520 433,1514 444,1502 455,1490 460,1469 460,1438 460,1412 458,1376 453,1331 448,1286 441,1234 433,1177 425,1119 416,1057 406,990 395,923 385,856 374,789 363,721 353,654 343,589 332,523 323,462 315,406 307,349 301,300 296,257 291,214 288,181 288,158 288,135 291,120 298,112 304,103 312,99 323,99 338,99 356,102 376,107 395,112 420,121 450,132 L 463,85 Z" horiz-adv-x="398" unicode="l"/>
<glyph id="glyph3200" d="M 465,1417 C 465,1391 463,1359 459,1320 455,1281 450,1238 444,1190 437,1141 430,1089 421,1034 412,979 403,922 394,864 385,806 375,747 366,688 356,629 347,571 338,515 L 538,665 C 584,699 622,728 651,752 680,776 698,795 706,810 713,824 709,834 694,840 678,846 649,849 606,849 L 601,897 C 645,903 688,910 730,918 772,926 814,930 856,930 873,930 887,929 898,927 909,924 917,920 923,915 929,910 933,903 936,895 938,887 939,877 939,866 939,856 932,842 918,825 903,807 882,786 855,762 827,738 793,712 754,684 715,655 670,626 620,595 L 501,522 C 518,501 536,477 553,448 570,419 587,389 604,358 621,327 637,296 653,265 669,234 685,206 700,182 715,157 730,137 745,122 759,107 773,99 786,99 801,99 819,100 838,103 857,105 880,113 905,127 L 927,83 C 883,46 841,16 802,-6 762,-28 728,-39 701,-39 678,-39 655,-28 633,-7 610,15 589,43 568,77 547,111 526,149 506,190 485,231 465,272 446,311 427,350 408,387 389,420 370,453 352,477 335,494 327,439 320,388 313,339 306,290 301,245 297,205 293,165 291,131 290,103 289,74 291,53 295,40 286,35 273,29 257,22 240,15 223,7 206,-1 188,-9 171,-16 155,-24 139,-30 127,-36 119,-41 L 81,-8 C 84,11 88,43 95,86 102,129 110,179 120,238 129,296 140,360 151,429 162,498 174,568 185,640 196,712 207,783 218,854 229,925 238,991 247,1052 255,1113 262,1167 267,1214 272,1261 274,1298 274,1323 274,1340 273,1353 271,1362 269,1371 266,1378 262,1383 258,1388 253,1391 247,1392 241,1393 234,1393 226,1393 221,1393 212,1392 201,1389 189,1386 177,1382 165,1379 151,1375 136,1371 120,1366 L 105,1415 C 133,1428 163,1440 194,1453 225,1465 255,1476 284,1486 312,1496 337,1504 359,1511 381,1517 397,1520 406,1520 415,1520 424,1519 431,1517 438,1515 445,1511 450,1504 455,1497 458,1486 461,1473 464,1459 465,1440 465,1417 Z" horiz-adv-x="874" unicode="k"/>
<glyph id="glyph3202" d="M 401,870 C 401,863 400,850 399,832 397,813 395,792 392,767 389,742 387,716 384,688 381,659 378,632 375,605 372,578 369,553 366,530 363,507 361,488 360,473 355,427 349,370 342,302 335,233 326,157 313,74 300,-1 284,-64 264,-117 244,-170 222,-215 197,-252 172,-289 146,-321 119,-348 91,-374 63,-398 36,-419 18,-433 -2,-445 -23,-456 -44,-466 -65,-474 -87,-481 -107,-488 -128,-492 -147,-496 -166,-498 -183,-500 -197,-500 -218,-500 -240,-497 -263,-491 -286,-485 -306,-478 -325,-469 -344,-460 -359,-451 -371,-442 -382,-432 -388,-424 -388,-417 -388,-408 -383,-396 -373,-381 -363,-365 -351,-349 -339,-335 -325,-319 -312,-306 -299,-296 -286,-284 -276,-279 -269,-279 -263,-279 -255,-283 -246,-293 -236,-301 -224,-311 -210,-323 -196,-333 -179,-343 -159,-353 -139,-361 -115,-366 -88,-366 -60,-366 -35,-358 -14,-343 8,-327 27,-303 44,-272 61,-240 75,-200 88,-154 101,-106 112,-52 123,11 132,60 139,107 145,152 151,197 156,238 161,276 165,314 169,348 172,378 175,407 177,432 179,451 180,467 183,489 186,518 189,546 192,575 195,604 198,633 200,661 202,686 204,711 205,729 205,740 205,755 204,768 202,777 200,786 197,792 194,797 190,801 186,804 181,805 176,806 170,807 164,807 158,807 150,806 139,804 128,801 117,798 106,795 93,792 80,788 66,783 L 50,830 C 78,843 107,855 138,868 169,881 198,892 225,902 252,912 277,920 298,927 319,933 334,936 343,936 362,936 376,932 386,924 396,916 401,898 401,870 Z M 484,1262 C 484,1243 481,1225 474,1206 467,1187 458,1169 446,1154 434,1138 419,1125 402,1116 384,1106 364,1101 342,1101 317,1101 298,1108 285,1122 272,1135 265,1153 265,1176 265,1194 268,1213 275,1232 281,1251 290,1268 303,1284 315,1299 330,1312 347,1323 364,1333 384,1338 406,1338 431,1338 451,1331 464,1317 477,1303 484,1285 484,1262 Z" horiz-adv-x="874" unicode="j"/>
<glyph id="glyph3204" d="M 483,85 C 420,48 365,17 318,-6 270,-29 230,-41 198,-41 175,-41 157,-30 143,-10 128,12 121,40 121,76 121,96 124,124 129,160 134,196 140,236 147,280 154,323 161,369 170,416 179,463 187,508 194,551 201,594 207,632 212,665 217,698 219,723 219,740 219,755 218,768 216,777 214,786 211,792 208,797 205,801 200,804 195,805 190,806 184,807 178,807 173,807 165,806 154,804 143,801 132,798 121,795 108,792 95,788 80,783 L 65,830 C 93,843 122,855 153,868 183,881 212,892 239,902 266,912 290,920 311,927 332,933 348,936 358,936 377,936 390,930 399,917 407,904 411,883 411,852 411,833 409,805 404,768 399,731 392,691 385,646 378,601 370,554 361,505 352,456 343,409 336,364 329,319 323,279 318,242 313,205 310,177 310,158 310,137 312,122 317,113 321,104 329,99 340,99 361,99 380,102 398,107 416,112 439,121 466,132 L 483,85 Z M 508,1262 C 508,1243 505,1225 499,1206 492,1187 483,1169 471,1154 459,1138 444,1125 427,1116 410,1106 390,1101 368,1101 343,1101 323,1108 310,1122 297,1135 290,1153 290,1176 290,1194 293,1213 300,1232 307,1251 316,1268 328,1284 340,1299 355,1312 372,1323 389,1333 409,1338 431,1338 456,1338 476,1331 489,1317 502,1303 508,1285 508,1262 Z" horiz-adv-x="425" unicode="i"/>
<glyph id="glyph3206" d="M 995,85 C 933,49 877,19 828,-5 779,-29 739,-41 708,-41 689,-41 672,-30 657,-10 642,12 634,40 634,76 634,88 636,109 640,140 644,170 649,205 656,245 662,284 669,326 676,371 683,416 690,458 697,499 703,540 708,576 712,609 716,642 718,665 718,680 718,704 717,724 715,740 713,756 710,769 705,779 700,788 694,795 686,799 677,803 667,805 654,805 645,805 631,801 611,792 591,783 568,770 543,752 518,734 491,711 464,683 437,654 411,621 388,582 370,550 355,510 343,463 330,415 319,361 310,301 304,264 299,233 296,206 293,179 290,155 289,134 287,113 286,95 286,80 286,65 286,51 287,38 278,33 266,27 251,20 235,13 219,5 202,-2 185,-9 168,-16 153,-24 137,-30 125,-36 117,-41 L 81,-8 C 87,28 95,72 104,125 113,178 122,235 132,298 142,361 153,427 164,496 175,565 185,634 196,703 207,772 217,840 226,905 235,970 244,1031 251,1086 258,1141 263,1190 268,1232 272,1273 274,1305 274,1326 274,1341 273,1354 271,1363 268,1372 265,1378 262,1383 258,1387 254,1390 249,1391 244,1392 238,1393 233,1393 226,1393 217,1392 205,1389 192,1386 180,1382 167,1379 152,1375 137,1371 120,1366 L 107,1415 C 135,1428 165,1440 196,1453 227,1465 256,1476 284,1486 311,1496 336,1504 358,1511 380,1517 396,1520 406,1520 425,1520 440,1514 451,1502 462,1490 467,1469 467,1438 467,1422 465,1396 461,1360 457,1324 452,1282 446,1235 439,1188 432,1137 425,1084 417,1031 409,979 402,930 394,880 387,834 380,792 373,750 368,717 364,693 403,738 441,776 479,807 516,838 553,863 589,882 624,901 658,915 691,924 724,932 755,936 785,936 806,936 824,933 839,928 854,922 867,912 877,899 887,886 894,868 899,846 904,824 906,797 906,765 906,742 904,713 900,680 895,646 890,610 884,571 878,532 871,492 864,451 856,410 849,371 843,334 837,297 832,263 828,232 823,201 821,177 821,158 821,135 825,120 832,112 839,103 848,99 857,99 876,99 894,102 913,108 931,113 952,121 977,132 L 995,85 Z" horiz-adv-x="953" unicode="h"/>
<glyph id="glyph3208" d="M 346,116 C 358,116 374,125 395,143 416,160 439,185 465,217 490,249 517,287 544,332 571,376 597,425 622,478 625,507 628,538 632,570 635,601 640,635 646,672 647,683 650,694 653,705 656,716 660,726 664,736 653,745 642,754 630,764 618,774 605,783 592,791 579,799 565,806 550,811 535,816 520,819 505,819 475,819 447,812 422,798 396,783 372,764 351,740 329,716 310,689 293,658 276,627 261,596 250,563 238,530 229,498 223,466 216,434 213,405 213,379 213,338 217,301 224,269 231,236 240,209 252,186 264,163 278,146 295,134 311,122 328,116 346,116 Z M 901,891 C 878,872 861,849 848,822 835,795 825,757 819,709 810,630 803,558 799,494 795,429 791,369 788,313 785,257 781,204 777,154 773,103 766,52 757,1 745,-68 723,-133 690,-194 657,-255 619,-308 574,-353 529,-398 481,-434 428,-461 375,-487 323,-500 271,-500 241,-500 210,-496 177,-488 144,-480 113,-470 86,-459 58,-447 35,-434 17,-421 -1,-407 -10,-394 -10,-382 -10,-371 -5,-357 5,-342 15,-326 27,-311 40,-296 53,-281 65,-269 78,-259 90,-249 98,-244 103,-244 111,-244 120,-250 130,-264 140,-276 154,-291 172,-307 190,-322 213,-336 242,-350 271,-362 307,-369 352,-369 411,-369 460,-343 497,-292 534,-240 562,-159 581,-48 587,-14 592,18 595,49 598,80 601,109 604,138 606,166 608,194 609,221 610,248 611,276 612,304 589,263 563,221 535,180 507,139 478,102 448,69 417,36 386,10 355,-11 324,-31 293,-41 264,-41 242,-41 218,-35 193,-22 167,-9 143,11 121,39 99,66 81,102 66,146 51,189 44,242 44,305 44,358 50,409 63,460 75,510 93,558 118,604 142,649 173,692 210,733 247,773 290,809 339,842 358,854 378,866 400,877 421,888 444,898 467,907 490,916 514,923 538,928 562,933 586,936 610,936 624,936 638,934 652,930 665,925 679,920 692,914 705,907 718,900 731,892 743,884 755,876 766,869 784,883 802,896 821,907 839,918 857,927 874,936 L 901,891 Z" horiz-adv-x="927" unicode="g"/>
<glyph id="glyph3210" d="M 775,760 C 775,741 773,722 769,702 764,681 755,660 742,638 729,615 710,592 685,568 660,543 628,518 588,492 548,466 499,439 441,412 383,384 314,355 233,326 237,291 245,258 256,229 267,200 280,175 295,154 310,133 326,117 343,106 360,95 378,89 395,89 409,89 426,91 447,95 467,99 490,107 517,118 543,129 573,145 606,166 639,186 676,212 716,244 720,242 724,239 728,234 731,229 735,224 738,219 741,214 744,209 746,204 L 752,193 C 697,146 649,107 606,77 563,46 525,22 491,5 456,-12 425,-24 397,-31 368,-38 341,-41 315,-41 291,-41 264,-35 235,-23 205,-10 177,10 151,37 125,64 103,99 85,143 67,186 58,240 58,303 58,355 64,406 77,456 90,505 108,553 132,598 155,643 184,686 219,727 253,767 292,804 335,839 350,851 367,863 387,875 407,886 428,897 451,906 474,915 497,922 521,928 544,933 567,936 590,936 621,936 649,931 672,921 695,910 715,897 730,880 745,863 757,845 764,824 771,803 775,781 775,760 Z M 394,767 C 374,747 355,724 336,698 317,671 301,643 286,613 271,582 258,550 249,517 239,483 233,449 231,414 312,447 376,476 423,503 470,529 505,554 529,578 553,601 568,624 575,646 582,667 585,690 585,713 585,732 583,748 578,762 573,775 567,787 559,796 551,805 542,811 532,815 522,819 512,821 501,821 490,821 475,817 454,808 433,799 413,786 394,767 Z" horiz-adv-x="715" unicode="e"/>
<glyph id="glyph3212" d="M 611,411 C 616,452 624,499 633,552 642,605 651,660 660,719 649,731 637,743 625,755 613,766 600,777 587,787 573,796 559,804 544,810 529,816 513,819 497,819 468,819 440,812 415,798 390,783 367,764 346,740 325,716 306,689 290,658 273,627 260,596 249,563 238,530 229,498 224,466 218,434 215,405 215,379 215,338 219,301 227,269 234,236 245,209 258,186 271,163 285,146 302,134 319,122 336,116 354,116 369,116 387,123 406,137 425,151 446,171 468,197 490,222 513,253 537,290 561,326 586,366 611,411 Z M 945,80 C 888,42 840,12 799,-9 758,-30 725,-41 701,-41 689,-41 677,-36 665,-27 653,-17 642,0 633,23 624,46 616,76 610,113 603,150 599,197 598,253 574,212 549,173 522,138 495,102 468,71 441,45 413,18 385,-3 357,-18 328,-33 301,-41 274,-41 250,-41 225,-34 199,-21 172,-7 148,15 126,44 103,73 85,110 70,155 55,200 48,253 48,315 48,368 54,419 66,469 78,518 96,566 120,611 143,656 173,698 208,737 243,776 285,811 332,842 351,854 371,866 393,877 415,888 438,898 461,907 484,916 508,923 532,928 555,933 578,936 600,936 613,936 628,932 643,924 658,916 673,906 688,895 695,940 702,985 709,1028 715,1071 721,1112 726,1150 731,1187 735,1221 738,1252 741,1282 742,1307 742,1326 742,1341 741,1354 739,1363 736,1372 733,1378 729,1383 724,1387 719,1390 714,1391 709,1392 703,1393 697,1393 691,1393 682,1392 671,1389 659,1386 647,1382 636,1379 623,1375 608,1371 592,1366 L 579,1415 C 609,1429 639,1442 670,1455 701,1468 730,1479 757,1489 784,1498 807,1506 828,1512 849,1517 864,1520 873,1520 893,1520 908,1514 918,1502 928,1490 933,1469 933,1438 933,1412 931,1378 926,1337 921,1296 915,1250 908,1199 900,1148 891,1093 882,1036 872,978 862,920 852,861 841,802 831,745 822,688 812,631 803,577 796,528 788,479 782,435 777,396 772,357 770,327 770,304 770,233 774,182 783,150 791,117 803,101 818,101 835,101 853,103 870,107 887,110 908,117 931,127 L 945,80 Z" horiz-adv-x="901" unicode="d"/>
<glyph id="glyph3214" d="M 844,818 C 830,807 815,794 798,781 781,768 764,755 748,744 731,733 716,723 701,716 686,708 674,704 665,704 657,704 648,710 637,722 626,734 613,747 599,762 585,776 570,789 553,801 536,813 517,819 496,819 467,819 441,812 418,799 394,785 372,767 353,744 334,721 317,694 302,664 287,633 275,601 265,568 255,535 248,501 243,467 238,432 235,399 235,368 235,325 240,286 249,252 258,217 270,188 286,164 301,140 320,122 342,109 364,96 388,89 414,89 428,89 445,92 464,97 483,102 506,110 531,122 556,133 583,149 613,168 643,187 676,212 712,241 717,234 724,225 732,214 740,203 746,195 749,190 697,143 650,104 608,74 566,44 528,21 493,4 458,-13 427,-25 398,-32 369,-38 342,-41 316,-41 291,-41 264,-35 235,-24 205,-13 177,7 151,35 125,63 103,100 86,147 68,194 59,252 59,322 59,367 64,413 73,460 82,507 98,553 119,598 140,643 167,686 201,727 234,768 276,804 325,837 344,849 365,861 388,873 411,885 436,896 461,905 486,914 512,922 538,928 563,933 588,936 611,936 640,936 667,931 690,920 713,909 733,897 752,884 771,870 788,857 803,844 818,831 831,822 844,818 Z" horiz-adv-x="769" unicode="c"/>
<glyph id="glyph3216" d="M 610,788 C 599,788 582,781 561,767 540,753 516,733 490,707 463,680 436,648 408,611 379,574 352,532 326,485 319,437 314,395 310,358 306,321 304,292 304,271 304,254 309,235 320,216 330,197 343,179 360,163 376,146 394,133 415,122 435,111 455,106 475,106 496,106 516,110 535,117 554,124 571,133 587,145 602,157 617,171 630,186 643,201 654,216 664,232 679,255 691,279 700,304 709,329 717,355 723,381 728,407 732,433 734,458 736,483 737,507 737,530 737,572 733,609 726,642 719,674 709,701 698,723 686,744 672,761 657,772 642,783 626,788 610,788 Z M 911,610 C 910,539 898,468 876,396 853,324 817,255 768,188 745,158 720,129 692,102 664,74 633,50 600,29 567,8 531,-9 493,-22 455,-35 415,-41 373,-41 359,-41 343,-37 325,-31 307,-23 289,-14 270,-1 251,12 233,27 215,44 197,61 181,79 167,99 153,118 142,139 133,161 124,182 120,204 120,225 120,242 122,269 127,306 131,343 136,385 143,434 150,482 157,535 166,592 175,649 184,708 193,767 202,826 211,885 220,943 229,1001 236,1055 243,1105 250,1155 255,1199 260,1238 264,1276 266,1305 266,1326 266,1341 264,1354 261,1363 258,1372 253,1378 248,1383 243,1387 237,1390 231,1391 225,1392 219,1393 213,1393 207,1393 199,1392 188,1389 177,1386 166,1382 155,1379 142,1375 129,1371 115,1366 L 101,1415 C 130,1428 160,1441 192,1454 224,1467 254,1478 283,1488 312,1497 337,1505 360,1511 382,1517 398,1520 407,1520 426,1520 440,1514 447,1502 454,1490 458,1469 458,1438 458,1418 456,1392 453,1360 450,1327 445,1290 440,1249 435,1208 429,1163 422,1115 415,1067 407,1018 399,967 391,916 383,864 375,812 366,760 358,709 351,660 385,713 419,757 454,792 489,827 522,856 554,877 585,898 615,914 642,923 669,932 693,936 713,936 741,936 767,929 792,915 816,901 837,880 855,853 873,825 887,791 897,750 907,709 912,663 911,610 Z" horiz-adv-x="848" unicode="b"/>
<glyph id="glyph3218" d="M 597,414 C 601,443 606,473 611,505 616,537 622,568 627,599 632,629 637,657 642,683 647,708 651,730 654,747 644,756 633,764 622,773 610,781 598,789 585,796 572,803 559,808 546,813 533,817 519,819 505,819 475,819 447,812 422,797 396,782 372,763 351,740 329,716 310,689 293,658 276,627 262,596 251,563 239,530 230,498 224,466 218,434 215,405 215,379 215,338 218,301 225,269 232,236 241,209 252,186 263,163 277,146 293,134 308,122 325,116 342,116 356,116 373,124 394,141 415,158 437,180 460,208 483,236 506,268 530,304 553,339 576,376 597,414 Z M 927,81 C 870,42 821,12 781,-10 740,-30 709,-41 688,-41 676,-41 664,-37 652,-29 640,-21 629,-6 619,15 608,36 600,66 593,103 586,140 582,188 581,246 563,215 542,183 517,150 492,116 465,85 437,57 409,28 380,5 351,-14 322,-32 293,-41 266,-41 243,-41 219,-35 194,-22 169,-9 145,11 124,39 102,66 84,102 70,146 55,189 48,242 48,305 48,358 54,409 67,460 80,510 99,558 124,604 149,650 179,693 215,734 251,774 293,810 340,842 358,854 378,866 400,877 421,888 444,898 468,907 491,916 515,923 539,928 563,933 587,936 610,936 624,936 638,934 651,931 664,927 677,922 690,916 703,910 715,904 727,897 739,890 750,883 761,876 778,887 797,898 816,908 835,917 854,927 872,936 L 896,891 C 885,882 875,873 868,866 861,859 854,850 849,841 843,831 838,819 834,805 830,791 826,773 821,750 811,702 802,654 793,605 784,556 777,511 771,469 764,427 759,390 756,358 753,325 751,302 751,287 751,220 756,172 765,143 774,114 787,99 802,99 815,99 831,101 848,105 865,108 887,116 914,127 L 927,81 Z" horiz-adv-x="874" unicode="a"/>
<glyph id="glyph3220" d="M 970,1233 C 967,1216 962,1196 957,1174 952,1151 946,1129 939,1106 932,1083 926,1061 919,1040 912,1019 906,1003 901,990 L 850,990 C 855,1051 853,1095 844,1121 835,1146 818,1159 795,1159 L 460,1159 402,735 729,735 754,705 C 747,695 739,685 730,674 721,663 713,652 704,641 695,630 686,621 677,612 668,603 661,596 654,590 643,601 632,610 620,617 608,624 595,630 580,634 565,638 548,641 530,643 511,644 491,645 468,645 L 389,645 317,114 C 316,106 326,97 348,87 370,77 410,66 468,53 L 461,0 -3,0 5,53 C 47,62 80,73 105,84 130,95 143,105 144,114 L 287,1145 C 288,1153 279,1163 259,1175 239,1187 207,1198 164,1207 L 171,1260 944,1260 970,1233 Z" horiz-adv-x="1006" unicode="F"/>
<glyph id="glyph3222" d="M 1036,1190 C 1039,1187 1036,1178 1028,1164 1020,1150 1010,1134 997,1117 984,1100 971,1083 958,1066 944,1049 933,1037 924,1030 L 884,1040 C 872,1057 858,1073 843,1088 828,1103 810,1117 791,1128 772,1139 751,1147 728,1154 705,1161 679,1164 652,1164 625,1164 597,1159 567,1148 536,1137 508,1121 481,1100 439,1067 404,1026 375,977 346,928 322,876 304,822 285,767 272,713 264,660 256,606 252,558 252,516 252,443 262,381 281,330 300,278 325,236 355,203 385,170 418,147 454,132 490,117 525,109 558,109 576,109 596,111 618,116 640,121 665,129 692,141 719,153 748,169 780,189 812,209 847,234 886,264 889,263 893,260 896,255 899,250 901,244 904,239 907,233 909,227 912,222 914,217 916,213 917,211 872,166 829,128 788,98 747,67 708,43 671,24 633,5 597,-8 563,-16 529,-23 496,-27 465,-27 412,-27 362,-16 315,6 267,27 225,59 189,100 153,141 124,192 103,253 82,313 71,382 71,459 71,522 77,586 90,651 103,716 122,779 149,841 175,902 209,961 250,1017 291,1072 339,1122 395,1167 444,1205 498,1235 558,1257 617,1279 678,1290 741,1290 807,1290 865,1280 916,1261 967,1242 1007,1218 1036,1190 Z" horiz-adv-x="954" unicode="C"/>
<glyph id="glyph3224" d="M 306,157 C 306,136 302,114 295,92 288,70 277,50 263,32 249,13 232,-2 212,-14 192,-25 170,-31 145,-31 113,-31 89,-21 73,-3 57,17 49,42 49,73 49,93 53,114 61,136 69,157 80,177 95,195 109,212 126,227 146,239 166,250 188,256 211,256 241,256 264,247 281,229 298,210 306,186 306,157 Z" horiz-adv-x="266" unicode="."/>
<glyph id="glyph3226" d="M 327,107 C 327,86 323,63 315,38 306,13 295,-14 280,-42 265,-69 248,-97 229,-125 210,-153 189,-180 167,-205 144,-230 121,-254 97,-275 73,-296 49,-314 26,-328 L -16,-288 C 35,-234 74,-183 99,-136 124,-88 137,-45 137,-8 137,5 135,17 132,29 128,40 122,50 113,59 104,68 93,74 79,79 65,83 48,84 28,81 L 20,137 C 29,145 44,155 65,167 86,179 110,190 135,201 160,212 184,221 207,228 230,235 248,239 260,239 272,232 282,226 291,219 299,212 306,204 311,194 316,184 320,172 323,159 326,145 327,128 327,107 Z" horiz-adv-x="345" unicode=","/>
<glyph id="glyph3228" horiz-adv-x="423" unicode=" "/>
</font>
<font horiz-adv-x="2048" id="EmbeddedFont_1" horiz-origin-x="0" horiz-origin-y="0" vert-origin-x="45" vert-origin-y="90" vert-adv-y="90">
<font-face id="font-face3137" descent="556" ascent="1773" font-style="normal" font-weight="normal" units-per-em="2048" font-family="Gentium Book Basic embedded"/>
<missing-glyph id="missing-glyph3139" d="M 0,0 L 2047,0 2047,2047 0,2047 0,0 Z" horiz-adv-x="2048"/>
<glyph id="glyph3141" d="M 501,850 C 468,850 438,844 411,831 384,818 360,799 340,776 320,752 304,723 291,690 278,657 268,620 263,580 L 659,580 C 674,580 685,583 690,588 695,593 697,602 697,616 697,635 694,657 689,684 684,711 674,736 660,761 645,786 625,807 600,824 575,841 542,850 501,850 Z M 886,555 C 874,542 856,529 833,516 810,503 787,492 766,483 L 258,483 C 259,432 266,385 279,340 292,295 311,255 335,222 359,189 388,162 423,143 457,123 496,113 539,113 560,113 580,114 600,117 619,120 640,126 663,135 686,144 711,157 739,174 767,191 800,215 838,244 847,239 855,231 863,220 871,209 877,200 880,195 835,147 795,108 760,79 725,50 693,27 662,11 631,-6 600,-17 570,-22 539,-27 506,-30 470,-30 417,-30 366,-19 319,4 271,26 229,57 193,98 157,139 128,188 107,245 86,302 75,366 75,437 75,482 80,525 90,568 99,611 113,651 132,688 150,725 172,760 199,792 226,824 256,852 291,876 307,887 325,898 344,908 363,918 384,927 405,935 426,942 447,948 469,953 491,958 512,960 532,960 575,960 614,954 649,943 684,932 714,916 741,897 767,877 789,854 808,827 826,800 841,772 853,742 864,712 873,681 878,649 883,617 886,586 886,555 Z M 649,1081 C 640,1073 630,1066 618,1060 606,1053 594,1048 583,1045 L 221,1422 245,1468 C 252,1470 263,1473 278,1476 293,1479 310,1482 328,1485 345,1488 362,1490 379,1493 396,1495 408,1496 416,1497 L 649,1081 Z" horiz-adv-x="795" unicode="è"/>
<glyph id="glyph3143" d="M 597,0 L 597,53 C 614,54 629,56 644,59 658,62 669,66 677,72 685,78 689,86 689,97 688,108 681,122 668,140 L 488,386 309,140 C 296,122 290,108 292,97 294,86 300,78 311,72 322,66 335,62 351,59 367,56 383,54 399,53 L 399,0 18,0 18,53 C 44,57 66,62 84,69 102,75 118,82 131,90 144,98 155,107 164,117 173,126 181,136 188,146 L 427,470 196,788 C 187,800 179,811 170,822 161,832 151,841 139,848 127,855 112,862 95,867 77,872 55,875 29,877 L 29,930 474,930 474,877 C 453,875 436,872 422,869 407,866 397,861 390,855 383,848 381,840 383,830 384,819 391,806 403,790 L 547,591 691,790 C 703,806 710,819 712,830 714,840 712,848 706,855 700,861 690,866 676,869 662,872 645,875 624,877 L 624,930 1005,930 1005,877 C 978,875 954,872 935,867 915,862 898,855 883,848 868,841 855,832 844,822 833,811 823,800 814,788 L 608,507 871,146 C 879,136 888,126 897,117 906,107 916,98 929,90 941,81 955,74 972,67 988,60 1007,56 1029,53 L 1029,0 597,0 Z" horiz-adv-x="1033" unicode="x"/>
<glyph id="glyph3145" d="M 1094,92 C 1069,76 1045,61 1020,46 995,31 971,18 949,7 927,-4 908,-13 891,-20 874,-27 861,-30 853,-30 841,-30 830,-27 820,-20 810,-13 801,-3 793,12 785,27 778,46 773,70 767,93 763,122 760,156 719,116 681,84 647,60 613,35 582,16 554,3 525,-10 499,-19 476,-24 452,-28 429,-30 408,-30 377,-30 347,-26 318,-17 289,-8 263,8 240,31 217,54 199,85 186,125 172,165 165,216 165,279 L 165,704 C 165,736 164,761 163,779 161,796 156,810 148,819 140,828 128,834 111,837 94,840 70,844 39,847 L 39,897 C 66,900 91,903 114,907 137,910 160,915 182,920 203,925 225,930 247,937 268,944 291,951 315,960 L 345,919 345,337 C 345,292 348,254 355,225 361,196 370,172 382,155 394,138 409,126 427,119 444,112 464,108 486,108 505,108 524,111 545,116 565,121 586,130 609,142 631,154 655,170 680,190 705,209 731,233 760,262 L 760,705 C 760,735 759,759 756,777 753,795 747,809 738,819 728,829 714,836 696,840 678,844 654,846 623,846 L 623,897 C 677,903 728,912 775,924 822,935 867,947 908,960 L 940,919 940,264 C 940,223 942,191 945,168 948,145 954,131 963,124 971,119 984,118 1002,121 1019,124 1045,132 1079,147 L 1094,92 Z" horiz-adv-x="1086" unicode="u"/>
<glyph id="glyph3147" d="M 727,283 C 727,236 720,195 707,162 693,128 675,99 654,76 632,53 608,34 581,20 554,6 527,-5 500,-12 473,-19 447,-24 424,-27 400,-29 381,-30 366,-30 348,-30 328,-28 307,-26 286,-22 264,-18 241,-12 218,-6 194,2 170,11 146,20 123,31 101,43 96,45 93,56 92,77 90,97 89,121 90,148 90,175 92,202 95,231 98,260 103,283 108,301 L 163,290 C 166,259 175,231 189,206 203,180 221,158 243,139 265,120 290,105 319,94 348,83 378,78 411,78 459,78 497,91 525,116 553,141 567,175 567,220 567,247 560,270 546,291 532,312 514,331 491,348 468,365 441,382 412,397 383,412 353,428 322,444 294,458 267,473 240,490 213,506 190,524 169,545 148,565 131,588 118,613 105,638 99,666 99,698 99,739 108,776 126,809 144,842 168,869 197,892 226,914 260,931 299,943 337,954 376,960 416,960 439,960 464,958 491,955 517,951 543,946 568,939 593,932 616,924 638,915 659,906 677,895 691,883 695,880 696,870 693,854 690,837 686,820 680,800 673,780 666,762 659,743 651,725 644,716 639,716 L 590,716 C 563,768 533,806 500,830 466,853 431,865 395,865 374,865 355,862 338,855 321,848 306,840 295,830 283,819 274,807 268,794 262,781 259,767 259,753 259,732 265,713 277,696 289,679 305,663 326,648 346,633 370,618 397,604 424,590 452,575 482,559 511,544 540,529 569,512 598,495 625,476 648,455 671,433 690,408 705,381 720,353 727,320 727,283 Z" horiz-adv-x="663" unicode="s"/>
<glyph id="glyph3149" d="M 805,921 C 811,917 813,904 812,882 811,859 807,833 802,804 796,775 789,745 780,716 771,686 763,662 755,644 L 702,644 C 695,698 681,738 662,765 643,792 619,805 591,805 577,805 561,800 543,790 524,780 505,764 485,742 465,719 445,690 426,654 406,618 387,574 370,521 L 370,114 C 370,104 383,94 409,83 435,72 479,62 542,53 L 542,0 53,0 53,53 C 97,63 131,73 155,83 178,92 190,103 190,114 L 190,679 C 190,701 189,720 188,735 187,750 185,762 183,771 181,780 179,788 176,793 173,798 170,803 167,806 162,811 157,815 152,818 147,821 140,823 131,825 122,827 112,829 100,830 87,831 72,832 53,833 L 53,883 C 80,888 105,894 128,899 151,904 174,910 195,916 216,922 237,929 258,936 278,943 298,951 318,960 L 355,923 368,723 C 386,756 406,787 428,816 449,845 472,870 497,891 521,912 547,929 574,942 601,954 628,960 657,960 680,960 705,957 730,951 755,945 780,935 805,921 Z" horiz-adv-x="768" unicode="r"/>
<glyph id="glyph3151" d="M 668,0 L 668,53 C 716,66 751,77 773,86 794,95 805,105 805,114 L 805,618 C 805,657 803,690 799,715 795,740 788,760 779,775 769,789 756,799 741,805 726,810 707,813 685,813 666,813 645,809 622,801 599,793 574,780 548,762 521,743 493,719 463,690 433,660 402,623 370,579 L 370,114 C 370,104 382,94 407,83 431,72 465,62 508,53 L 508,0 53,0 53,53 C 97,64 131,75 155,84 178,93 190,103 190,114 L 190,704 C 190,730 189,751 188,766 186,781 181,793 172,802 163,811 150,817 132,821 113,825 87,829 53,833 L 53,883 C 104,890 151,900 193,913 235,926 277,941 318,960 L 355,923 366,709 C 399,750 433,786 469,817 504,848 540,875 575,896 610,917 643,933 676,944 709,955 738,960 764,960 793,960 820,956 847,947 874,938 897,924 918,905 938,886 954,863 967,834 979,805 985,770 985,729 L 985,114 C 985,109 987,105 992,101 997,96 1004,92 1015,87 1026,82 1040,77 1058,72 1075,66 1097,60 1123,53 L 1123,0 668,0 Z" horiz-adv-x="1113" unicode="n"/>
<glyph id="glyph3153" d="M 58,0 L 58,53 C 87,58 111,63 130,68 149,73 164,78 175,83 186,88 193,93 198,98 203,103 205,109 205,114 L 205,1286 C 205,1316 203,1339 200,1356 196,1373 189,1385 179,1394 168,1402 154,1408 137,1411 119,1414 96,1417 68,1420 L 68,1470 C 95,1475 120,1480 144,1485 168,1490 191,1495 214,1501 237,1507 259,1514 281,1522 302,1530 324,1539 347,1550 L 385,1514 385,114 C 385,104 396,94 418,83 440,72 478,62 533,53 L 533,0 58,0 Z" horiz-adv-x="477" unicode="l"/>
<glyph id="glyph3155" d="M 501,850 C 468,850 438,844 411,831 384,818 360,799 340,776 320,752 304,723 291,690 278,657 268,620 263,580 L 659,580 C 674,580 685,583 690,588 695,593 697,602 697,616 697,635 694,657 689,684 684,711 674,736 660,761 645,786 625,807 600,824 575,841 542,850 501,850 Z M 886,555 C 874,542 856,529 833,516 810,503 787,492 766,483 L 258,483 C 259,432 266,385 279,340 292,295 311,255 335,222 359,189 388,162 423,143 457,123 496,113 539,113 560,113 580,114 600,117 619,120 640,126 663,135 686,144 711,157 739,174 767,191 800,215 838,244 847,239 855,231 863,220 871,209 877,200 880,195 835,147 795,108 760,79 725,50 693,27 662,11 631,-6 600,-17 570,-22 539,-27 506,-30 470,-30 417,-30 366,-19 319,4 271,26 229,57 193,98 157,139 128,188 107,245 86,302 75,366 75,437 75,482 80,525 90,568 99,611 113,651 132,688 150,725 172,760 199,792 226,824 256,852 291,876 307,887 325,898 344,908 363,918 384,927 405,935 426,942 447,948 469,953 491,958 512,960 532,960 575,960 614,954 649,943 684,932 714,916 741,897 767,877 789,854 808,827 826,800 841,772 853,742 864,712 873,681 878,649 883,617 886,586 886,555 Z" horiz-adv-x="795" unicode="e"/>
<glyph id="glyph3157" d="M 372,115 C 407,115 445,124 486,143 527,161 572,192 623,235 L 623,481 C 572,473 530,465 497,457 464,449 436,441 414,433 392,424 375,416 362,407 349,398 337,388 327,377 310,359 296,339 285,317 274,295 269,269 269,239 269,214 273,193 280,177 287,161 296,148 307,139 318,130 329,123 341,120 353,117 363,115 372,115 Z M 956,92 C 899,53 849,23 805,2 760,-19 728,-30 707,-30 684,-30 665,-15 650,15 635,45 626,86 623,139 593,108 563,82 533,61 503,40 474,22 446,9 417,-5 390,-15 364,-21 338,-27 314,-30 293,-30 268,-30 242,-26 217,-18 191,-9 168,4 147,22 126,40 108,63 95,91 82,119 75,152 75,191 75,240 84,281 101,314 118,347 139,376 164,401 180,417 198,432 219,447 240,462 267,476 301,489 334,502 377,515 429,528 480,540 545,552 623,564 L 623,697 C 623,718 621,739 616,758 611,777 603,793 591,807 579,820 563,831 543,839 523,846 498,850 468,850 448,850 429,847 410,840 391,833 375,824 360,813 345,802 334,788 326,772 318,755 315,737 317,717 318,713 314,708 306,703 297,698 287,692 274,687 261,682 246,677 231,672 215,667 200,663 185,660 170,657 156,654 144,653 131,651 122,651 117,652 L 101,696 C 116,731 140,765 173,797 206,829 243,857 285,881 327,905 372,924 420,939 468,953 515,960 562,960 641,960 701,940 742,899 783,858 803,804 803,735 L 803,198 C 803,170 807,150 814,138 821,126 831,120 843,120 852,120 864,122 878,125 892,128 912,136 939,147 L 956,92 Z" horiz-adv-x="875" unicode="a"/>
<glyph id="glyph3159" d="M 1578,1207 C 1560,1207 1539,1204 1516,1198 1493,1192 1469,1184 1445,1174 L 1455,114 C 1455,106 1467,96 1492,85 1516,73 1552,62 1600,53 L 1600,0 1123,0 1123,53 C 1168,62 1205,73 1233,84 1261,95 1275,105 1275,114 L 1266,1007 833,0 769,0 334,1003 325,114 C 325,106 337,96 361,85 384,73 420,62 468,53 L 468,0 58,0 58,53 C 104,62 139,73 164,84 188,95 200,105 200,114 L 210,1169 C 185,1183 160,1193 135,1199 110,1204 87,1207 68,1207 L 68,1260 374,1260 C 381,1260 386,1259 391,1257 396,1255 400,1251 405,1245 410,1239 415,1231 420,1220 425,1209 432,1194 440,1176 L 828,297 1208,1176 C 1217,1196 1224,1212 1230,1223 1235,1234 1240,1243 1245,1248 1249,1253 1253,1257 1258,1258 1263,1259 1268,1260 1274,1260 L 1578,1260 1578,1207 Z" horiz-adv-x="1562" unicode="M"/>
<glyph id="glyph3161" d="M 48,0 L 48,53 C 93,62 128,73 153,84 178,95 190,105 190,114 L 190,1145 C 190,1153 178,1163 155,1175 132,1187 96,1198 48,1207 L 48,1260 523,1260 523,1207 C 478,1198 443,1187 418,1176 393,1165 380,1154 380,1145 L 380,651 777,1118 C 792,1136 802,1150 807,1161 812,1172 811,1180 806,1186 800,1192 789,1197 773,1200 757,1203 736,1205 710,1207 L 710,1260 1140,1260 1140,1207 C 1119,1204 1100,1202 1084,1199 1068,1196 1054,1193 1041,1189 1028,1184 1017,1179 1006,1172 995,1165 985,1156 975,1145 L 540,673 1023,140 C 1046,115 1072,100 1101,96 1130,91 1162,91 1197,95 L 1204,42 C 1185,36 1164,30 1143,23 1122,16 1101,10 1080,5 1059,-1 1038,-6 1019,-9 1000,-12 982,-14 966,-14 947,-14 930,-11 915,-5 900,1 885,12 872,29 L 380,634 380,114 C 380,106 392,96 415,85 438,73 474,62 523,53 L 523,0 48,0 Z" horiz-adv-x="1166" unicode="K"/>
<glyph id="glyph3163" d="M 578,1207 C 533,1198 498,1187 473,1176 448,1165 435,1154 435,1145 L 435,198 C 435,121 429,56 417,3 405,-50 389,-96 369,-133 349,-170 326,-201 301,-227 276,-251 250,-275 224,-296 206,-311 186,-324 164,-336 142,-348 120,-358 97,-367 74,-375 52,-381 31,-386 10,-391 -9,-393 -25,-393 -48,-393 -71,-390 -94,-383 -117,-376 -137,-368 -155,-360 -173,-350 -187,-341 -199,-332 -209,-322 -215,-314 -215,-308 -215,-302 -210,-293 -200,-281 -189,-269 -177,-257 -163,-244 -148,-231 -133,-220 -119,-209 -103,-198 -91,-191 -82,-188 -63,-201 -46,-212 -32,-221 -16,-230 -2,-236 11,-242 24,-246 37,-250 50,-252 62,-254 74,-255 87,-255 104,-255 122,-250 141,-240 160,-229 177,-210 192,-182 207,-154 220,-115 230,-66 240,-17 245,47 245,126 L 245,1145 C 245,1149 243,1153 238,1158 233,1163 223,1168 209,1173 195,1178 176,1184 151,1190 126,1195 93,1201 53,1207 L 53,1260 578,1260 578,1207 Z" horiz-adv-x="821" unicode="J"/>
<glyph id="glyph3165" horiz-adv-x="476" unicode=" "/>
</font>
</defs>
</svg>
