<svg xmlns="http://www.w3.org/2000/svg" id="svg1854" viewBox="0 0 8268 11692" version="1.0" fill-rule="evenodd"><defs id="defs1856"><linearGradient id="linearGradient3001" y2="3708" gradientUnits="userSpaceOnUse" x2="4510" gradientTransform="translate(-8884.6 -8183.5) scale(3.9187)" y1="3708" x1="2817"><stop id="stop3301" offset="0" stop-color="#fff"/><stop id="stop3303" offset="1" stop-color="#fff" stop-opacity="0"/></linearGradient><style id="style1957" type="text/css">@font-face{font-family:&quot;Arial&quot;;src:url(#FontID0) format(svg)}</style><font id="FontID0"><font-face id="font-face1859" font-family="Arial"/><glyph id="glyph1865" unicode="B" horiz-adv-x="723"><path id="path1867" d="M72 716h288c57 0 98 0 129-5 26-5 52-16 72-31 21-16 42-36 57-62 16-21 21-51 21-82s-11-62-26-93c-21-26-46-47-77-62 46-16 77-36 103-67 25-31 36-67 36-108 0-31-11-62-26-93s-36-57-62-72c-26-21-57-31-93-36-25-5-82-5-175-5H72v716zm144-119V432h201c26 6 46 16 62 26 10 16 21 36 21 57s-11 41-21 57c-10 10-31 20-52 25H216zm0-283V118h134c52 0 88 5 103 5 21 5 36 16 52 31 10 16 20 36 20 62 0 21-5 36-15 52-10 15-26 25-47 36-20 5-61 10-128 10H216z"/></glyph><glyph id="glyph1869" unicode="I" horiz-adv-x="278"><path id="path1871" d="M67 0v716h144V0H67z"/></glyph><glyph id="glyph1873" unicode="M" horiz-adv-x="834"><path id="path1875" d="M72 0v716h216l129-490 129 490h216V0H628v567L484 0H345L206 567V0H72z"/></glyph><glyph id="glyph1877" unicode="U" horiz-adv-x="722"><path id="path1879" d="M72 716h144V328c0-63 0-103 4-121 9-27 23-50 45-68 23-18 54-27 95-27 40 0 72 9 94 23 23 18 32 40 36 63 5 22 10 63 10 121v397h144V342c0-90-5-149-14-185s-22-63-40-90c-23-22-50-45-86-58s-81-22-140-22c-67 0-117 9-153 26-36 14-63 36-85 59-18 27-32 54-41 81-9 40-13 99-13 180v383z"/></glyph><glyph id="glyph1881" unicode="V" horiz-adv-x="668"><path id="path1883" d="M257 0L0 716h154l186-531 175 531h149L412 0H257z"/></glyph><glyph id="glyph1885" unicode="W" horiz-adv-x="945"><path id="path1887" d="M175 0L5 716h144l108-490 134 490h170l129-500 108 500h145L773 0H618L474 536 329 0H175z"/></glyph><glyph id="glyph1889" unicode="S" horiz-adv-x="668"><path id="path1891" d="M36 231l139 16c10-46 26-83 51-103 26-26 62-36 109-36 46 0 82 10 103 31 25 20 36 41 36 67 0 20-5 36-16 46-10 10-26 21-51 31-16 5-57 15-114 31-77 21-134 41-165 72-46 36-67 88-67 144 0 37 11 67 31 104 21 30 52 51 88 72 41 15 88 25 144 25 88 0 155-20 201-61 47-42 72-93 72-160l-144-5c-5 36-21 62-41 82-21 16-52 21-88 21-46 0-77-5-103-26-15-10-20-26-20-41 0-21 5-31 20-47 21-15 62-31 134-46 72-16 124-36 155-52 36-20 62-41 82-72 16-31 26-72 26-113s-10-83-31-119c-26-36-57-62-98-77-41-20-93-25-160-25-87 0-159 20-206 61-51 41-77 103-87 180z"/></glyph><glyph id="glyph1893" unicode="i" horiz-adv-x="278"><path id="path1895" d="M72 590v126h135V590H72zM72 0v518h135V0H72z"/></glyph><glyph id="glyph1897" unicode="e" horiz-adv-x="556"><path id="path1899" d="M373 166l136-22c-19-54-46-90-82-117-40-27-85-40-144-40-90 0-157 31-202 89-32 50-50 108-50 180 0 86 23 153 68 203 45 45 103 72 171 72 76 0 139-27 180-77 45-49 68-130 68-234H171c4-40 13-72 36-94 18-23 45-36 76-36 23 0 41 4 54 18 18 13 27 31 36 58zm5 135c0 41-9 72-27 95-23 18-45 31-72 31-32 0-54-13-77-36-18-22-27-49-27-90h203z"/></glyph><glyph id="glyph1901" unicode="b" horiz-adv-x="612"><path id="path1903" d="M67 0v716h139V458c41 47 87 72 149 72s114-20 155-67c41-46 62-113 62-201 0-87-21-154-62-201-41-51-93-71-155-71-31 0-57 5-87 20-31 15-52 36-73 67V0H67zm134 273c0-57 10-98 25-124 26-36 57-52 98-52 31 0 57 11 78 37 20 25 30 67 30 123 0 62-10 103-30 129-21 26-52 41-83 41-36 0-62-15-82-41-26-26-36-62-36-113z"/></glyph><glyph id="glyph1905" unicode="n" horiz-adv-x="611"><path id="path1907" d="M545 0H405v265c0 54 0 90-9 108-5 18-14 27-27 36-14 9-27 18-50 18-22 0-45-9-63-22-18-14-31-32-36-50-9-22-13-63-13-121V0H72v518h126v-77c45 59 103 90 171 90 31 0 58-4 81-18 27-9 45-23 59-41 13-18 22-36 27-58 4-23 9-50 9-90V0z"/></glyph><glyph id="glyph1909" unicode="a" horiz-adv-x="556"><path id="path1911" d="M175 360L49 382c14 50 41 86 72 113 36 23 86 36 153 36 63 0 108-9 135-22 32-14 54-32 63-55 14-22 18-63 18-126V171c0-45 5-81 10-104 4-18 9-45 22-67H387c-5 9-9 22-14 40 0 9-4 14-4 18-23-22-50-40-77-54-27-8-54-17-85-17-54 0-95 17-126 44-32 27-45 68-45 108 0 32 4 59 22 81 14 23 32 41 59 54 22 9 58 23 108 32 63 9 108 22 135 31v14c0 27-9 45-23 58-13 9-36 18-72 18-27 0-45-9-58-18-14-9-23-27-32-49zm185-113c-18-4-50-13-86-18-36-9-63-18-76-27-18-9-27-27-27-45 0-22 9-36 22-49 14-18 32-23 54-23 27 0 50 9 72 23 18 13 27 27 32 45 4 13 9 36 9 67v27z"/></glyph><glyph id="glyph1913" unicode="m" horiz-adv-x="891"><path id="path1915" d="M61 520h129v-72c41 57 98 82 160 82 31 0 62-5 88-20 25-16 41-36 56-62 26 26 52 46 78 62 25 15 51 20 82 20 41 0 72-5 98-20 26-16 46-41 57-72 10-21 15-57 15-109V0H690v298c0 52-5 83-15 98-16 21-31 31-62 31-16 0-36-5-52-20-15-11-31-26-36-52-10-20-10-57-10-108V0H376v283c0 52-5 82-11 98 0 15-10 26-20 36-10 5-26 10-41 10-21 0-42-5-57-20-16-11-31-26-36-47-10-20-10-56-10-108V0H61v520z"/></glyph><glyph id="glyph1917" unicode="l" horiz-adv-x="278"><path id="path1919" d="M72 0v716h139V0H72z"/></glyph><glyph id="glyph1921" unicode="h" horiz-adv-x="612"><path id="path1923" d="M211 716V453c41 52 93 77 154 77 37 0 62-5 88-15 26-15 47-26 57-46 15-21 20-42 26-62 5-21 10-57 10-103V0H407v273c0 56-5 92-11 103-5 15-10 26-25 36-11 10-31 15-52 15s-41-5-57-20c-20-11-31-26-41-47-10-25-10-56-10-98V0H72v716h139z"/></glyph><glyph id="glyph1925" unicode="k" horiz-adv-x="556"><path id="path1927" d="M67 0v716h135V337l162 181h172L355 328 545 0H400L270 234l-68-68V0H67z"/></glyph><glyph id="glyph1929" unicode="c" horiz-adv-x="557"><path id="path1931" d="M525 365l-134-25c-5 31-15 46-31 62-20 15-41 20-67 20-31 0-62-10-82-36-21-21-26-62-26-118 0-62 10-104 31-129 21-26 46-42 82-42 26 0 47 11 62 26 16 16 31 41 36 78l134-26c-15-62-41-108-77-139-41-31-98-46-165-46-72 0-134 20-180 71-47 47-67 114-67 196 0 88 20 155 67 201 46 47 108 72 185 72 62 0 114-15 150-41s67-67 82-124z"/></glyph><glyph id="glyph1933" unicode="o" horiz-adv-x="612"><path id="path1935" d="M41 268c0 46 10 87 31 134 25 41 56 72 98 98 41 20 87 30 139 30 77 0 139-25 191-77 51-51 77-113 77-191 0-82-26-144-77-195-52-52-114-77-191-77-47 0-93 10-139 30-42 21-73 52-98 93-21 41-31 93-31 155zm139-11c0-51 10-87 36-118 26-26 57-42 93-42s67 16 87 42c26 31 36 67 36 123 0 47-10 88-36 114-20 31-51 41-87 41s-67-10-93-41c-26-26-36-67-36-119z"/></glyph><glyph id="glyph1937" unicode="r" horiz-adv-x="389"><path id="path1939" d="M202 0H67v518h126v-73c23 36 41 59 59 68 18 14 36 18 58 18 32 0 63-9 90-27l-40-117c-23 13-45 18-63 18-23 0-36-5-50-14-13-9-27-31-31-58-9-27-14-86-14-171V0z"/></glyph><glyph id="glyph1941" unicode="u" horiz-adv-x="612"><path id="path1943" d="M412 0v77c-16-26-41-52-72-67s-62-20-98-20-67 5-93 20c-31 15-52 36-62 67-10 26-20 67-20 113v330h139V283c0-77 5-119 10-139 5-16 10-26 26-36 10-11 31-16 51-16 21 0 42 5 62 21 21 10 31 26 36 46 11 21 11 67 11 139v222h139V0H412z"/></glyph><glyph id="glyph1945" unicode="t" horiz-adv-x="333"><path id="path1947" d="M309 520V412h-93V128c5-10 10-15 15-20 6-5 16-5 21-5 16 0 31 5 57 10l10-103c-31-15-67-20-108-20-26 0-47 5-67 10-21 10-31 20-41 30-11 16-16 31-21 57-5 16-5 47-5 98v227H15v108h62v103l139 78V520h93z"/></glyph><glyph id="glyph1949" unicode="w" horiz-adv-x="779"><path id="path1951" d="M170 0L5 520h134l98-340 87 340h134l88-340 98 340h134L613 0H479l-88 335L304 0H170z"/></glyph><glyph id="glyph1953" unicode="s" horiz-adv-x="557"><path id="path1955" d="M25 149l134 21c5-26 21-47 36-62 21-16 47-21 78-21 36 0 62 5 77 21 15 10 21 20 21 36 0 10-6 20-11 26-5 5-20 10-46 15-108 26-180 52-211 67-42 31-62 67-62 119 0 46 20 82 56 113 37 31 88 46 165 46 67 0 124-10 155-36 36-20 62-56 72-103l-129-20c-5 20-15 36-31 46-15 10-36 15-67 15-36 0-61-5-77-15-10-5-15-15-15-26 0-10 5-20 15-26 10-10 52-25 129-41 72-15 124-36 149-62 31-20 47-56 47-98 0-51-21-92-62-123-41-36-98-51-175-51-72 0-129 15-170 40-42 31-67 67-78 119z"/></glyph></font>
</defs>
</svg>
