<svg xmlns="http://www.w3.org/2000/svg">
<defs>
<font id="font898" horiz-adv-x="0"><font-face id="font-face900" font-family="fnt2" ascent="965" units-per-em="2048" descent="-235"/><glyph id="glyph904" horiz-adv-x="555" d="M0 0z"/><glyph id="glyph906" unicode="E" horiz-adv-x="1583" d="M76 0v47q121 0 155 27 35 27 35 116v1108q0 89-35 116-34 28-155 28v47h1218l164-397h-45q-78 90-140 151-61 62-106 94-45 33-84 53-38 21-75 33-30 10-78 14-48 5-115 5H637q-49 0-64-9-14-9-14-44V795h139q187 0 287 70 100 71 129 222h43V403h-43q-12 172-115 255-102 83-301 83H559V195q0-111 20-130 21-18 119-18h154q200 0 335 89 136 89 257 302l45-4L1370 0H76z"/><glyph id="glyph908" unicode="I" horiz-adv-x="901" d="M807 1489v-47h-23q-116 0-151-28-35-27-35-116V190q0-88 35-116 35-27 151-27h23V0H94v47h23q117 0 151 27 35 28 35 116v1108q0 90-34 117t-154 27v47h692z"/><glyph id="glyph910" unicode="L" horiz-adv-x="1554" d="M872 47q201 0 336 89 136 89 256 302l45-4L1391 0H76v47q121 0 155 27 35 27 35 116v1108q0 89-35 116-34 28-155 28v47h674v-47q-121 0-156-28-35-27-35-116V195q0-111 20-130 21-18 119-18h174z"/><glyph id="glyph912" unicode="N" horiz-adv-x="1886" d="M332 1343V342q0-162 49-227 49-64 170-68V0H53v47q113 16 158 80 45 65 45 215v940q0 105-33 131-32 27-147 27H53v49h565l947-1063v721q0 162-50 226-49 64-169 69v47h497v-47q-113-16-158-81-45-64-45-214V-29h-86L332 1343z"/><glyph id="glyph914" unicode="b" horiz-adv-x="1128" d="M162 1192q0 90-26 120-25 30-103 40v43q80 14 166 42t180 70V815q64 58 134 86 70 29 149 29 175 0 285-132 110-131 110-345 0-215-128-350Q801-31 596-31q-82 0-157 22-74 21-142 64h-31l-61-73h-43v1210M383 172q36-76 92-116 57-40 127-40 102 0 161 93 60 94 60 258 0 183-83 301T535 786q-41 0-79-16-37-16-73-49V172z"/><glyph id="glyph916" unicode="d" horiz-adv-x="1118" d="M739 729q-36 76-92 116-55 40-125 40-102 0-162-94-59-94-59-256 0-196 79-315 80-118 208-118 40 0 77 16 38 17 74 50v561m0 504q0 90-25 119-24 29-102 39v45q111 19 193 36 82 18 153 35V223q0-90 25-119 25-28 102-38V20q-60-9-178-25-117-16-168-23V86Q675 28 606 0q-69-29-147-29-176 0-287 132T61 449q0 206 126 345 126 140 313 140 66 0 126-19 60-18 113-55v373z"/><glyph id="glyph918" unicode="e" horiz-adv-x="1024" d="M305 612h307q60 0 84 11 25 11 25 36 0 95-54 157-54 63-137 63-102 0-160-69-57-68-65-198m635-280l31-23Q890 134 779 52 668-29 510-29q-196 0-323 129Q61 229 61 426q0 212 136 358 137 146 335 146 181 0 296-101 115-100 135-276H299q0-6-1-19-1-12-1-18 0-159 89-257 90-97 235-97 95 0 171 40t148 130z"/><glyph id="glyph920" unicode="l" horiz-adv-x="569" d="M184 1192q0 91-25 120-25 30-104 40v43q82 14 168 42t180 70V164q0-77 23-97 24-20 94-20h12V0H55v47h13q70 0 93 21 23 22 23 96v1028z"/><glyph id="glyph922" unicode="m" horiz-adv-x="1839" d="M1042 164q0-76 22-97 23-20 89-20h12V0H698v47h11q65 0 86 20 22 20 22 97v452q0 97-49 152t-135 55q-63 0-121-36T403 680V164q0-77 23-97 24-20 94-20h12V0H55v47h13q70 0 93 21 23 22 23 96v450q0 91-25 119-25 29-104 39v45q82 15 168 42 86 28 180 71V770q95 83 178 121 83 39 169 39 98 0 166-45 69-44 104-131 99 91 187 133 89 43 177 43 142 0 215-87 74-87 74-255V164q0-76 22-97 23-20 89-20h10V0h-467v47h10q65 0 87 20 22 21 22 97v452q0 97-49 152t-133 55q-63 0-121-38-58-37-101-105V164z"/><glyph id="glyph924" unicode="n" horiz-adv-x="1241" d="M403 164q0-77 23-97 24-20 94-20h12V0H55v47h13q70 0 93 21 23 22 23 96v450q0 91-25 119-25 29-104 39v45q82 15 168 42 86 28 180 71V770q101 83 188 121 88 39 177 39 151 0 229-87t78-255V164q0-77 23-97t94-20h12V0H719v47h12q71 0 94 20t23 97v452q0 98-53 152-53 55-146 55-67 0-130-36-62-36-116-107V164z"/><glyph id="glyph926" unicode="p" horiz-adv-x="1146" d="M403 172q37-76 92-116 56-40 126-40 102 0 161 93 60 94 60 258 0 183-84 301-83 118-205 118-40 0-77-16-36-15-73-49V172m0-397q0-77 23-97 24-20 94-20h12v-47H55v47h13q70 0 93 20t23 97v839q0 91-25 119-25 29-104 39v45q82 15 168 42 86 28 180 71V815q65 58 134 86 69 29 147 29 176 0 286-132 111-132 111-345 0-207-126-347Q830-33 643-33q-66 0-126 19-60 18-114 55v-266z"/><glyph id="glyph928" unicode="r" horiz-adv-x="901" d="M403 672q87 135 167 196 81 62 169 62 73 0 117-39 45-39 45-103 0-54-34-89-33-35-85-35-42 0-114 34-71 35-101 35-46 0-89-49-42-48-75-137V164q0-78 24-98 24-19 105-19h37V0H55v47h13q70 0 93 20t23 97v450q0 91-25 119-25 29-104 39v45q82 15 168 42 86 28 180 71V672z"/><glyph id="glyph930" unicode="s" horiz-adv-x="901" d="M129 41l-20 321 43 3q52-172 132-257t189-85q69 0 108 35 40 36 40 98 0 101-193 196-13 7-21 11-201 102-252 161-51 60-51 144 0 113 95 187 95 75 243 75 94 0 171-16 77-15 143-48l20-272-39-6q-55 147-131 221-75 74-170 74-61 0-101-36-40-35-40-87 0-87 232-190 41-17 63-27 126-57 179-123 54-65 54-158 0-133-101-213-100-80-269-80-74 0-154 18T129 41z"/><glyph id="glyph932" unicode="u" horiz-adv-x="1241" d="M840 737q0 77-23 97t-94 20h-12v55h346V287q0-90 25-120 26-30 104-40V84q-80-15-166-43-86-27-180-70v156Q740 47 651 9q-88-38-178-38-151 0-229 87t-78 255v424q0 77-23 97t-94 20H37v55h356V283q0-97 52-151 53-54 147-54 69 0 132 36t116 105v518z"/><glyph id="glyph934" unicode="v" horiz-adv-x="1081" d="M573-29h-59L178 692q-5 11-14 31Q106 851 0 862v47h514v-47q-86-6-107-17-20-11-20-38 0-21 7-47 7-25 22-55l219-467 217 473q12 25 17 42 5 18 5 31 0 31-20 46-19 16-94 32v47h313v-47q-54-12-91-50t-77-126L573-29z"/><glyph id="glyph936" unicode="x" horiz-adv-x="1118" d="M877 193q58-81 105-112 48-30 108-30h20V0H528l1 47q56 2 86 16t30 39q0 28-27 65l-4 6-129 175-176-196q-14-16-20-29-6-12-6-25 0-21 18-34 19-12 57-17V0H23v47q71 8 129 42t129 114l172 192-209 285q-8 10-22 30Q114 857 23 862v47h522l-1-47q-54-1-79-13-25-11-25-34 0-17 7-34 7-16 28-46l127-172 148 166q25 29 36 47 11 19 11 33 0 19-24 33t-66 20v47h378v-47h-10q-72 0-132-33-59-33-150-135L635 518l242-325z"/></font><font id="font938" horiz-adv-x="0"><font-face id="font-face940" font-family="fnt0" ascent="962" units-per-em="2048" descent="-235"/><glyph id="glyph944" horiz-adv-x="516" d="M0 0z"/><glyph id="glyph946" unicode="+" horiz-adv-x="1705" d="M795 1221h118V670h539V553H913V0H795v553H254v117h541v551z"/><glyph id="glyph948" unicode="," horiz-adv-x="516" d="M166-274q82 73 116 124 35 50 35 93 0 39-62 60-17 6-25 9-53 19-78 48t-25 69q0 45 30 72 31 28 81 28 71 0 118-60 47-59 47-151 0-90-51-170-50-81-153-157l-33 35z"/><glyph id="glyph950" unicode="-" horiz-adv-x="673" d="M84 379v137h504V379H84z"/><glyph id="glyph952" unicode="." horiz-adv-x="516" d="M137 109q0 52 34 86 35 34 87 34 51 0 86-35t35-85q0-50-36-86-36-35-85-35-50 0-86 35-35 36-35 86z"/><glyph id="glyph954" unicode="/" horiz-adv-x="567" d="M82-190H-35l502 1636h115L82-190z"/><glyph id="glyph956" unicode="0" horiz-adv-x="1034" d="M516 20q122 0 185 168 63 169 63 494t-63 494q-63 170-185 170-121 0-185-170-63-169-63-494 0-323 63-493Q394 20 514 20h2m438 650q0-307-124-501T516-25q-193 0-315 195Q80 365 80 682t122 513q122 196 314 196 194 0 316-198t122-523z"/><glyph id="glyph958" unicode="1" horiz-adv-x="1034" d="M246 0v43q124 3 159 23t35 114v856q0 71-19 86-18 15-83 15H233v49q100 22 182 70 82 49 163 135h38V184q0-92 26-111 26-18 149-30V0H246z"/><glyph id="glyph960" unicode="2" horiz-adv-x="1034" d="M109 0v27q0 147 198 402 50 65 76 99l168 226q81 110 115 184 34 75 34 137 0 85-54 141t-134 56q-101 0-188-72-86-71-183-235l-35 14q98 210 218 312 121 102 272 102 133 0 216-78 83-77 83-199 0-144-224-381l-16-16-243-260q-80-85-130-157-50-71-79-140h514q63 0 97 28 35 28 67 105h41L782-109h-37v21q0 54-20 71Q706 0 604 0H109z"/><glyph id="glyph962" unicode="3" horiz-adv-x="1034" d="M375 668q172 186 221 268 49 83 49 154 0 80-49 129t-131 49q-61 0-126-36t-146-116l-31 25q118 137 210 195 92 59 185 59 102 0 165-60 64-60 64-155 0-94-55-182-54-88-174-185 163-14 256-111 94-97 94-253 0-192-136-332T440-23q-148 0-251 62T86 182q0 32 23 54t55 22q34 0 57-20t58-91q29-64 74-94 46-30 112-30 117 0 197 103 81 104 81 257 0 141-90 213-89 72-264 72h-14z"/><glyph id="glyph964" unicode="5" horiz-adv-x="1034" d="M232 750l51 616h424q58 0 79 14 21 15 33 54h41l-88-226H319l-24-288h43q268 0 414-122 147-121 147-343 0-209-132-344Q636-23 428-23q-133 0-236 57Q90 91 90 158q0 31 23 51t57 20q27 0 48-16 22-15 42-49 45-77 90-105 46-28 117-28 127 0 207 95t80 247q0 183-118 281-117 98-339 98-27 0-40-1-13 0-25-1z"/><glyph id="glyph966" unicode="6" horiz-adv-x="1034" d="M279 406q0-175 66-279T520 23q119 0 196 108 77 109 77 283 0 152-77 248t-198 96q-114 0-177-92-62-92-62-260m29 291q59 67 124 98 65 32 143 32 169 0 280-116 112-115 112-291 0-188-125-318Q718-27 545-27q-190 0-317 165-126 166-126 421 0 311 188 539 189 228 503 297l12-37q-209-54-349-240-139-185-148-421z"/><glyph id="glyph968" unicode="7" horiz-adv-x="1034" d="M831 1208H346q-76 0-96-15-20-14-39-71l-21-63h-47l117 379h37q-1-6-3-16-1-10-1-13 0-24 16-34 16-9 74-9h549v-51L518 151q-9-26-25-74Q446-70 377-70q-36 0-57 20T299 4q0 57 198 473t334 731z"/><glyph id="glyph970" unicode="8" horiz-adv-x="1034" d="M598 807q101 78 141 144 41 66 41 149 0 115-66 182-65 68-177 68-111 0-182-65-70-64-70-163 0-89 63-156 64-67 250-159m-201-94q-123 61-185 145t-62 186q0 153 114 251t297 98q152 0 254-83 103-82 103-200 0-104-62-176-61-71-219-146l92-51q108-59 161-143 54-83 54-195 0-181-121-303Q702-25 520-25 346-25 227 79 109 183 109 332q0 124 70 217 71 94 218 164m49-23q-96-68-148-161t-52-197q0-133 81-220t203-87q126 0 200 87 75 87 75 236 0 86-50 147-50 62-198 138l-111 57z"/><glyph id="glyph972" unicode="?" horiz-adv-x="786" d="M258 381l1 471q207 2 286 46 80 44 80 153 0 89-48 134-47 46-163 64-17 3-48 7-157 22-157 96 0 41 30 65 30 25 80 25 126 0 243-127 118-127 118-283 0-168-87-248-87-79-278-86l-10-317h-47M158 96q0 51 34 85 35 34 87 34 51 0 85-34 35-34 35-85 0-47-37-84-36-37-83-37-50 0-86 36-35 36-35 85z"/><glyph id="glyph974" unicode="B" horiz-adv-x="1263" d="M90 1v48h12q84 0 111 22t27 128v1034q0 97-26 118t-110 21H90v49q99 1 236 3 138 3 176 3 304 0 443-87 140-87 140-275 0-106-59-183-59-76-176-120 155-22 246-117 92-94 92-229 0-215-161-320Q867-8 537-8q-58 0-260 4Q158-1 90 1m359 751h45q195 0 296 77t101 226q0 155-99 239t-282 84q-25 0-38-1-13 0-23-1V752m0-576q0-74 36-104 36-29 131-29 166 0 257 87 92 87 92 245 0 179-91 255-90 77-311 77H449V176z"/><glyph id="glyph976" unicode="E" horiz-adv-x="1323" d="M113 0v47q95 3 122 23t27 112v1051q0 97-26 118-25 21-109 21h-14v49h1028l102-325-43-17q-67 107-111 158-43 52-88 84-41 29-104 41t-217 12H471V750q29-1 55-2h52q185 0 251 54 66 55 86 208h35V440h-35q-21 152-86 206t-251 54H471V201q0-96 32-125t136-29h125q177 0 267 58 90 59 224 278l39-12-75-371H113z"/><glyph id="glyph978" unicode="H" horiz-adv-x="1677" d="M113 1421h526v-47h-41q-81 0-104-21-23-20-23-102V758h735v493q0 119-146 123h-22v47h529v-49h-15q-85 0-111-21t-26-126V147q0-57 28-78 28-20 107-20h17V0h-529v47h39q82 0 105 21 24 22 24 104v530H471V172q0-121 153-124 10-1 15-1V0H113v49h14q84 0 109 21 26 21 26 120v1086q0 57-26 76-26 20-105 20h-18v49z"/><glyph id="glyph980" unicode="I" horiz-adv-x="772" d="M659 1421v-47h-41q-80 0-103-21t-23-102V172q0-85 22-105t111-20h34V0H113v47h28q91 0 115 21 25 22 25 104v1079q0 84-21 103-21 20-108 20h-39v47h546z"/><glyph id="glyph982" unicode="J" horiz-adv-x="763" d="M299 1214v11q0 104-27 125-26 22-110 22h-27v49h541v-49h-39q-75 0-96-20t-21-101V297q0-143-13-230-13-86-42-155-52-120-139-184-86-64-197-64-74 0-118 35-44 34-44 92 0 48 27 78 26 29 69 29 30 0 57-18 28-18 48-50 10-16 24-45 28-59 54-59 28 0 40 31 13 31 13 100v1357z"/><glyph id="glyph984" unicode="L" horiz-adv-x="1372" d="M113 0v49h14q84 0 109 21 26 21 26 120v1043q0 97-26 118-25 21-109 21h-14v49h540v-47q-119-3-151-31-31-27-31-141V201q0-96 32-125 33-29 146-29h135q191 0 297 75 107 76 250 335h45L1262 0H113z"/><glyph id="glyph986" unicode="M" horiz-adv-x="1886" d="M297 281q0-131 34-185 35-53 115-53h43V0H59v43h41q76 0 110 55t34 181v1017q-11 44-48 62-36 19-120 23v40h350L963 274l491 1147h330v-49h-15q-85 0-111-21t-26-126V170q0-74 22-94 23-20 130-33V0h-529l1 43q102 3 134 25 33 23 33 104v1057L905 0h-43L297 1210V281z"/><glyph id="glyph988" unicode="S" horiz-adv-x="1114" d="M188 78L123 4H96v438h45q14-191 119-301T532 31q131 0 221 84 91 85 91 207 0 168-302 279-46 17-69 26-181 69-259 163-77 94-77 238 0 179 121 298 122 120 301 120 146 0 289-89 38-24 49-24t26 10q15 11 33 31h29V956h-41q-31 211-126 325-94 114-236 114-115 0-194-82-79-81-79-199 0-110 61-177 62-67 242-132 245-89 326-178 82-89 82-234 0-183-130-300Q761-23 555-23q-94 0-185 25T188 78z"/><glyph id="glyph990" unicode="T" horiz-adv-x="1523" d="M866 172q0-77 27-102t100-25q5 0 18 1 14 1 21 1V0H492v47h32q79 0 107 24 28 25 28 101v1200h-53q-42 0-93-2-51-1-154-6l-66-4q-62-4-223-247-28-42-43-64l-27 18 82 387q54-17 113-25 60-8 159-8h815q100 0 160 8 61 8 115 25l82-387-27-18q-12 18-35 52-170 255-234 259l-63 4q-103 5-154 6-51 2-93 2h-54V172z"/><glyph id="glyph992" unicode="U" horiz-adv-x="1546" d="M250 608v633q0 90-27 110t-122 23l-1 47h527v-47h-52q-75 0-96-22-20-21-20-101V401q0-165 105-269Q669 29 836 29q212 0 315 131 104 131 104 399v625q0 111-33 150-32 40-112 40h-43v47h418v-47h-37q-73 0-103-40-30-39-30-150V537q0-283-132-423Q1052-25 784-25q-174 0-298 58-123 58-175 164-33 67-47 153-14 87-14 258z"/><glyph id="glyph994" unicode="V" horiz-adv-x="1230" d="M610-29L82 1294q-15 37-35 55t-49 21l-61 4v47h555v-47l-64-4q-65-5-90-22t-25-54q0-15 4-32t13-37l372-942 337 914q9 26 13 46 5 21 5 37 0 50-38 71t-136 23v47h454v-47l-45-8q-78-14-113-50-35-35-73-136L651-29h-41z"/><glyph id="glyph996" unicode="W" horiz-adv-x="1773" d="M72 1294q-13 36-33 53t-51 21l-54 6v47h545v-49l-61-6q-74-6-95-22-20-15-20-50 0-20 15-64 1-4 1-5l338-936 252 741-102 264q-15 36-37 54-21 19-49 20l-76 4v49h569v-49l-74-4q-53-3-79-21-25-18-25-55 0-15 13-55 3-9 4-13l301-935 227 805q3 11 10 33 27 94 27 133 0 58-37 84-36 26-122 28l-1 49h438v-47l-55-10q-67-15-100-54-33-38-62-130L1309-29h-37L938 940 610-29h-41L72 1294z"/><glyph id="glyph998" unicode="Y" horiz-adv-x="1058" d="M643 209v-16q0-101 27-123 28-21 125-21V0H281v49h14q85 0 111 21 26 22 26 129v444L70 1274q-32 55-65 76-32 22-83 25v46h510v-46q-79-3-110-17t-31-47q0-11 4-24 5-12 14-25l309-529 246 424q34 58 47 89 13 32 13 54 0 40-27 57-26 18-96 24v40h362v-47q-110-7-200-162-8-14-13-22L643 678V209z"/><glyph id="glyph1000" unicode="a" horiz-adv-x="878" d="M551 172v309q-189-72-261-127-71-54-71-121 0-62 44-103 45-40 112-40 38 0 76 17 39 18 100 65m-6-51Q469 49 401 13T270-23q-86 0-139 50-53 51-53 133 0 110 101 191t378 181v205q0 64-28 93-27 30-87 30-75 0-131-33-55-33-55-82 0-92-23-130-23-37-77-37-36 0-57 20t-21 55q0 84 143 176 143 93 287 93 113 0 160-58 47-57 47-241V129q0-26 11-41 11-14 30-14 22 0 36 18 14 19 17 51h39q-9-78-51-120-41-41-111-41-61 0-98 36t-43 103z"/><glyph id="glyph1002" unicode="b" horiz-adv-x="1087" d="M326 731V301q0-149 53-213 53-63 172-63 128 0 209 119 82 119 82 307 0 177-81 284T549 842q-63 0-119-28-55-27-104-83m-156 436q0 66-19 95t-75 51v24q60 18 119 42 59 25 116 57h15V797q80 64 151 91 72 27 154 27 170 0 275-124 106-123 106-324 0-218-126-352Q761-18 557-18q-127 0-270 52-35 13-43 13-6 0-12-5-5-5-11-15l-22-43h-29v1183z"/><glyph id="glyph1004" unicode="c" horiz-adv-x="909" d="M850 268Q790 128 694 52q-96-75-215-75-172 0-288 133Q76 243 76 446q0 205 122 340 123 136 308 136 131 0 229-71 99-70 99-161 0-30-24-52-23-22-54-22-61 0-91 118-4 15-6 22-17 64-49 91-31 27-86 27-123 0-204-104-80-104-80-264 0-178 90-294T553 96q84 0 151 47t115 140l31-15z"/><glyph id="glyph1006" unicode="d" horiz-adv-x="1114" d="M770 174v330q0 181-61 272-60 92-181 92T332 758q-74-109-74-287 0-169 87-280T561 80q61 0 113 23 52 24 96 71m0 993q0 72-23 100-23 29-85 42v26q66 19 128 44t121 57h19V170q0-35 15-51 16-16 79-33V63q-79-23-134-42-54-18-99-35h-19v135Q707 48 633 11q-73-36-154-36-164 0-277 134Q90 243 90 442q0 217 120 345 121 128 320 128 50 0 109-11 59-10 131-32v295z"/><glyph id="glyph1008" unicode="e" horiz-adv-x="995" d="M618 662q36 0 53 15t17 46q0 65-54 108-53 43-136 43-90 0-156-56-65-56-92-156h368m246-54H242q-8-58-12-92-3-34-3-59 0-152 100-253 100-100 248-100 108 0 192 57 84 58 122 156l39-12Q879 151 764 62 650-27 500-27q-183 0-305 127Q74 228 74 422q0 226 122 362 123 136 330 136 148 0 261-87 114-87 114-184 0-22-8-32-8-9-29-9z"/><glyph id="glyph1010" unicode="f" horiz-adv-x="661" d="M383 158q0-79 24-99 25-20 95-20h41V0H98l1 39q83 3 106 24 24 21 24 127v590H82l22 84h125v86q0 227 98 356 98 130 265 130 95 0 156-47t61-115q0-37-22-60-21-22-58-22-34 0-55 15t-41 55q-33 64-57 83t-60 19q-74 0-104-66-29-66-29-294V864h223l-24-84H383V158z"/><glyph id="glyph1012" unicode="g" horiz-adv-x="964" d="M272-39q-46-28-71-71-25-44-25-99 0-98 73-148 74-51 218-51 195 0 293 48t98 143q0 80-58 116T610-63H438q-62 0-97 6-35 5-69 18m199 404q83 0 129 67 47 67 47 186 0 120-47 188t-129 68q-84 0-131-68-47-67-47-188 0-119 47-186t131-67m-162-25q-44-24-65-55-21-30-21-70 0-66 57-94 58-27 224-29l111-2q177-3 263-64 87-61 87-184 0-147-128-222-127-75-380-75-196 0-301 57Q51-342 51-238q0 69 46 124 46 54 141 98-58 34-86 74-27 40-27 89 0 57 36 108 36 52 113 105-66 47-100 109-33 63-33 141 0 136 89 223 90 87 231 87 78 0 139-20 62-20 123-64 38 32 76 49 39 18 71 18 41 0 64-21 24-21 24-57 0-23-17-40-16-17-40-17-22 0-58 25-36 26-59 26-12 0-22-2-9-2-19-6 32-49 47-96 15-46 15-97 0-135-93-219-92-84-241-84-34 0-73 6t-89 19z"/><glyph id="glyph1014" unicode="h" horiz-adv-x="1103" d="M82 0v38q67 3 90 27t23 125v977q0 67-19 94-19 28-76 52v24q61 18 119 42 59 25 117 57h12V758q71 86 139 125 69 39 152 39 149 0 219-101t70-317V141q0-70 15-84 16-13 97-18V0H668v39q62 1 84 21t22 106v344q0 181-45 250-44 69-149 69-73 0-131-37-58-36-101-108V158q0-80 22-100 22-19 91-19V0H82z"/><glyph id="glyph1016" unicode="i" horiz-adv-x="561" d="M166 1329q0 46 30 76 30 31 76 31 45 0 76-31t31-76q0-42-32-74t-75-32q-43 0-75 31-31 32-31 75m199-409V158q0-80 22-100 22-19 90-19V0H90l1 39q68 3 89 27t21 124v461q0 67-19 94-19 28-76 52v24q61 18 119 42 59 25 117 57h23z"/><glyph id="glyph1018" unicode="k" horiz-adv-x="1067" d="M80 0v39q73 3 93 27t20 124v977q0 69-20 95-19 26-75 51v24q61 18 119 42 59 25 117 57h14V508l295 225q21 17 34 35t13 31q0 30-74 42-16 3-27 5l-65 12v37h455v-37q-131-29-223-101-3-2-4-3L549 596l342-434q51-66 97-95 47-28 102-28V0H627v39l51 6q30 5 44 15 15 11 15 28 0 9-4 16-3 8-10 17L430 510l-82-64V158q0-81 21-100 22-19 90-19V0H80z"/><glyph id="glyph1020" unicode="l" horiz-adv-x="555" d="M358 158q0-81 22-100t89-19V0H90l1 39q69 3 90 27 22 24 22 124v977q0 69-20 95-19 26-74 51v24q60 18 118 42 59 25 117 57h14V158z"/><glyph id="glyph1022" unicode="m" horiz-adv-x="1662" d="M94 0l1 39q68 3 89 28 21 26 21 123v461q0 65-19 93t-77 53v24q60 18 118 42 59 25 117 57h10V758q71 89 138 126 67 38 157 38 97 0 165-50 69-49 95-137 69 99 138 143 70 44 157 44 83 0 148-41t104-117q18-33 25-76 8-42 8-127V119q0-45 22-62 22-16 88-18V0h-364v38q62 2 82 22 20 21 20 116v375q0 149-46 212-45 64-150 64-67 0-125-41-57-41-94-116V119q0-45 22-62 22-16 90-18V0H668v39h8q56 0 76 25 20 26 20 112v377q0 146-47 210t-152 64q-66 0-123-41-57-40-96-116V158q0-79 22-99t89-20V0H94z"/><glyph id="glyph1024" unicode="n" horiz-adv-x="1114" d="M90 39q80 6 96 23 17 18 17 104v24l-2 461q0 67-19 94-19 28-76 52v24q64 20 121 44 58 24 115 55h18l-4-162q77 90 143 127 67 37 148 37 149 0 218-100t69-318V115q0-43 16-57 17-14 98-19l1-39H674v39q73 5 89 17 17 13 17 59v438q0 142-47 209t-147 67q-72 0-129-36T356 684V158q0-82 22-101 22-18 89-18V0H90v39z"/><glyph id="glyph1026" unicode="o" horiz-adv-x="983" d="M492 25q116 0 182 113 67 113 67 311 0 199-66 310T492 870q-117 0-184-112-66-112-66-309 0-200 66-312Q375 25 492 25m421 424q0-213-117-344Q680-25 492-25q-189 0-305 130Q72 235 72 449q0 213 115 342t305 129q189 0 305-130 116-129 116-341z"/><glyph id="glyph1028" unicode="p" horiz-adv-x="1114" d="M346 766V420q0-218 51-305 52-86 172-86 124 0 209 110 86 111 86 277 0 184-94 304T537 840q-49 0-94-18-45-17-97-56m0-1049q0-75 26-97 27-23 126-23v-37H78v37q74 4 93 20 19 15 19 78v956q0 65-19 93t-77 53v24q61 18 119 42 59 25 117 57h16V817q66 49 133 72 68 24 142 24 184 0 294-121 111-121 111-325 0-209-138-350Q751-23 545-23q-50 0-99 9-48 8-100 26v-295z"/><glyph id="glyph1030" unicode="r" horiz-adv-x="688" d="M91 39q70 3 91 27 21 25 21 124v461q0 67-20 94t-77 52v24q69 23 127 47t109 52h14V772q47 74 103 114t112 40q49 0 77-27t28-74q0-33-20-54t-50-21q-21 0-65 17-43 17-68 17-36 0-69-24-32-24-48-64V158q0-82 24-101 25-18 120-18V0H90l1 39z"/><glyph id="glyph1032" unicode="s" horiz-adv-x="792" d="M102 45v252h41q29-146 81-210t138-64q79 0 129 51 50 52 50 131 0 60-36 104t-140 99q-164 83-208 137-44 55-44 133 0 106 80 174 81 68 210 68 65 0 127-18 63-17 123-52V633h-41q-14 112-76 180t-147 68q-68 0-110-36-41-36-41-95 0-85 126-154 9-5 15-8 16-9 50-27 263-141 263-299 0-125-96-205T350-23q-65 0-128 18-62 17-120 50z"/><glyph id="glyph1034" unicode="t" horiz-adv-x="755" d="M221 793H106v20q71 52 134 109 63 58 120 122h17V895h301l-53-102H377V270q0-103 32-147 33-43 107-43 36 0 78 21 43 21 84 59l18-23Q646 61 577 20q-68-40-147-40-114 0-162 64-47 64-47 269v480z"/><glyph id="glyph1036" unicode="u" horiz-adv-x="1101" d="M915 895V201q0-66 17-82 18-15 78-19V76q-53-18-111-40-57-22-125-50h-14v153Q685 47 619 11q-65-36-152-36T314 15q-66 40-99 112-18 39-26 87-7 49-7 146v416q0 47-20 62-20 16-94 20v37h268V383q0-187 45-251t156-64q67 0 125 41 59 42 98 118v510q0 77-20 99t-81 22h-10v37h266z"/><glyph id="glyph1038" unicode="v" horiz-adv-x="935" d="M422-18L127 766q-19 50-46 67-26 18-83 21v41h416v-41h-23q-60 0-84-11-24-10-24-34 0-7 4-23t12-41l207-559 246 559q6 16 9 29 3 14 3 27 0 21-17 33-17 13-51 16l-53 4v41h303v-41q-91-10-154-152-9-20-14-31L467-18h-45z"/><glyph id="glyph1040" unicode="w" horiz-adv-x="1417" d="M135 748q-24 63-50 83-26 21-79 24v40h395v-41l-61-4q-29-2-44-13-15-10-15-28 0-11 3-26 4-15 13-38l215-555 186 482-28 76q-23 58-52 81-29 24-77 25v41h379v-41l-47-4q-28-2-43-13t-15-28q0-9 3-24 4-14 11-40l179-542 206 542q7 16 10 29 3 14 3 27 0 21-15 33t-47 16l-49 4v41h289v-40q-57-8-86-31-28-22-53-89L969-18h-41L721 600 475-18h-43L135 748z"/><glyph id="glyph1042" unicode="x" horiz-adv-x="968" d="M23 0v39h6q67 0 114 28t127 138l170 229-262 354q-21 28-47 44t-57 20l-37 6v37h414v-37l-35-4q-28-3-40-11-11-7-11-22 0-10 3-20 3-9 13-25l158-223 145 209q6 9 12 27 6 19 6 28 0 22-22 31-21 10-76 10h-26v37h364v-37q-116 0-200-112l-7-9-166-219 250-364q47-68 83-90 37-21 95-25V0H520v39l68 4q40 3 59 15t19 34q0 12-8 28t-33 52L467 391 317 178q-30-45-40-65-9-19-9-33 0-21 22-31 23-10 70-10h29V0H23z"/><glyph id="glyph1044" unicode="y" horiz-adv-x="933" d="M-24 858l-1 37h437v-37l-49-4q-55-3-76-15t-21-38q0-8 4-19t13-27l286-538 172 514q5 15 8 31t3 31q0 37-30 51-29 14-118 14v37h346v-37q-65-6-93-27-28-20-56-98L467-211l-2-6q-79-225-184-225-41 0-65 25-23 24-23 65 0 34 23 57 24 23 60 23 11 0 34-5 24-6 36-6 26 0 42 14 16 13 28 46l86 246-396 725q-35 65-62 86t-68 24z"/><glyph id="glyph1046" unicode="’" horiz-adv-x="516" d="M174 944q80 72 115 122 35 51 35 95 0 40-63 61-17 6-26 9-52 19-76 46-24 28-24 69 0 44 31 72t80 28q70 0 117-60 47-59 47-151 0-90-51-171T205 907l-31 37z"/><glyph id="glyph1048" unicode="“" horiz-adv-x="901" d="M735 1411q-82-74-117-124-34-50-34-93 0-40 63-61 15-5 25-9 52-19 77-48 25-28 25-68 0-45-31-73-30-28-79-28-71 0-119 60-47 60-47 151 0 89 51 170t156 158l30-35m-385 0q-80-72-115-123-34-50-34-94 0-40 63-61 15-5 25-9 52-19 77-48 25-28 25-68 0-45-31-73-30-28-79-28-71 0-119 60-47 60-47 151 0 90 50 171 51 81 154 157l31-35z"/><glyph id="glyph1050" unicode="”" horiz-adv-x="901" d="M557 944q82 74 117 124t35 93q0 40-63 61-17 6-26 9-52 19-77 47t-25 68q0 44 31 72t80 28q71 0 118-60 48-60 48-151 0-89-52-170-51-81-155-158l-31 37m-383 0q80 72 115 122 35 51 35 95 0 40-63 61-17 6-26 9-52 19-76 46-24 28-24 69 0 44 31 72t80 28q70 0 117-60 47-59 47-151 0-90-51-171T205 907l-31 37z"/></font><font id="font1052" horiz-adv-x="0"><font-face id="font-face1054" font-family="fnt1" ascent="626" units-per-em="1000" descent="-142"/><glyph id="glyph1058" horiz-adv-x="600" d="M0 0z"/><glyph id="glyph1060" unicode="," horiz-adv-x="600" d="M385 163H240l-87-263h110l122 263z"/><glyph id="glyph1062" unicode="." horiz-adv-x="600" d="M395 70c0 39-32 83-94 83-58 0-95-42-95-84 0-26 25-81 97-81 52 0 92 37 92 82z"/><glyph id="glyph1064" unicode="B" horiz-adv-x="600" d="M555 162c0 46-18 93-59 118l-32 20c38 30 57 71 57 116 0 67-46 156-194 156H36v-93h78V93H36V0h329c123 0 190 74 190 162M430 413c0-63-75-71-96-71H206v137h133c68 0 91-36 91-66m33-245c0-61-64-75-93-75H206v156h112c37 0 145 0 145-81z"/><glyph id="glyph1066" unicode="C" horiz-adv-x="600" d="M567 77l-56 68c-32-22-103-65-183-65-130 0-183 103-183 208 0 153 110 204 181 204 52 0 103-20 146-47v-95h92v233h-92v-42c-13 10-64 42-147 42-158 0-273-124-273-294 0-115 65-301 279-301 39 0 160 20 236 89z"/><glyph id="glyph1068" unicode="D" horiz-adv-x="600" d="M563 297c0 95-33 200-128 249-39 20-84 26-128 26H26v-93h79V93H26V0h257c148 0 280 68 280 297m-92-4c0-68-19-140-77-177-34-21-72-23-115-23h-82v386h113c117 0 161-84 161-186z"/><glyph id="glyph1070" unicode="E" horiz-adv-x="600" d="M551 0v209h-93V93H219v152h106v-66h93v224h-93v-66H219v142h239V360h93v212H50v-93h77V93H48V0h503z"/><glyph id="glyph1072" unicode="G" horiz-adv-x="600" d="M585 186v93H307v-93h142V97l-34-8c-29-7-58-9-88-9-55 0-108 14-146 57-33 38-46 92-46 145 0 140 87 210 179 210 60 0 94-21 143-51v-92h93v234h-93v-46c-39 25-74 46-144 46-152 0-272-121-272-305C41 89 178-12 328-12c92 0 192 43 212 51v147h45z"/><glyph id="glyph1074" unicode="H" horiz-adv-x="600" d="M579 0v93h-76v386h76v93H333v-93h78V341H193v138h79v93H25v-93h76V93H25V0h247v93h-79v155h218V93h-78V0h246z"/><glyph id="glyph1076" unicode="I" horiz-adv-x="600" d="M512 0v93H350v386h162v93H90v-93h165V93H90V0h422z"/><glyph id="glyph1078" unicode="K" horiz-adv-x="600" d="M575 0v93H474c-23 44-48 82-77 125-19 29-64 83-78 100l166 161h64v93H321v-93h41L201 324v155h78v93H30v-93h79V93H30V0h249v93h-78v112l56 54c24-27 52-65 70-91 37-54 73-116 97-168h151z"/><glyph id="glyph1080" unicode="N" horiz-adv-x="600" d="M605 479v93H343v-93h93V175L193 572H14v-93h76V93H14V0h265v93h-97v315L440 0h88v479h77z"/><glyph id="glyph1082" unicode="S" horiz-adv-x="600" d="M532 164c0 29-8 59-23 82-52 78-153 67-234 79-26 4-92 15-92 75 0 43 46 91 128 91 38 0 76-11 109-27v-96h92v215h-92v-23c-33 15-73 23-113 23-143 0-217-101-217-183 0-47 21-91 61-122 57-44 135-43 209-49 50-4 81-21 81-65 0-49-39-85-136-85-50 0-97 16-139 41v76H74V-13h92v36c20-9 65-36 139-36 124 0 227 67 227 177z"/><glyph id="glyph1084" unicode="T" horiz-adv-x="600" d="M563 354v218H40V354h93v125h122V93H135V0h334v93H348v386h122V354h93z"/><glyph id="glyph1086" unicode="U" horiz-adv-x="600" d="M598 479v93H336v-93h94V215c0-87-23-134-123-134-109 0-117 64-117 117v281h92v93H20v-93h78V207c0-72 7-141 76-185 46-29 87-34 135-34 43 0 84 10 122 27 64 29 91 103 91 171v293h76z"/><glyph id="glyph1088" unicode="V" horiz-adv-x="600" d="M601 479v93H354v-93h90L308 121 168 479h77v93H-1v-93h74L260 0h93l181 479h67z"/><glyph id="glyph1090" unicode="W" horiz-adv-x="600" d="M606 479v93H378v-93h93l-34-284-101 271h-66L170 193l-35 286h92v93H-2v-93h47L109 0h79l113 301L416 0h78l65 479h47z"/><glyph id="glyph1092" unicode="X" horiz-adv-x="600" d="M575 0v93h-64L354 299l137 180h66v93H342v-93h44l-83-110-85 110h52v93H42v-93h67l139-180L89 93H25V0h246v93h-76l105 137L403 93h-60V0h232z"/><glyph id="glyph1094" unicode="a" horiz-adv-x="600" d="M564 0v93h-77v166c0 37 0 77-15 109-37 80-149 80-169 80-73 0-148-25-212-52l36-80c55 22 113 39 172 39 24 0 98-2 98-62v-12c-34 4-73 7-108 7C67 288 58 151 58 132c0-65 60-144 172-144 44 0 94 14 122 31 0 0 30 19 45 28V0h167M397 158c-46-43-103-77-168-77-40 0-79 18-79 50 0 49 74 65 125 65 56 0 93-6 122-8v-30z"/><glyph id="glyph1096" unicode="b" horiz-adv-x="600" d="M553 219c0 117-96 229-232 229-52 0-103-17-141-51v224H9v-93h79V93H10V0h170v38c37-27 73-50 144-50 140 0 229 116 229 231m-93 1c0-77-62-140-143-140-42 0-140 26-140 136 0 73 42 139 142 139s141-85 141-135z"/><glyph id="glyph1098" unicode="d" horiz-adv-x="600" d="M590 0v93h-76v528H303v-93h119V399c-37 33-91 49-144 49-137 0-233-110-233-231C45 94 145-12 282-12c52 0 103 16 142 48V0h166M422 216C422 97 313 81 280 81c-77 0-142 60-142 138s63 136 146 136c51 0 107-30 124-71 9-20 14-44 14-68z"/><glyph id="glyph1100" unicode="e" horiz-adv-x="600" d="M559 61l-42 76c-61-31-131-57-204-57-118 0-150 62-155 96h381c1 10 3 45 3 66 0 122-105 205-231 205-115 0-246-78-246-232C65 97 149-12 313-12c87 0 175 31 246 73M452 269H165c20 58 83 85 141 85 56 0 116-15 142-70l4-15z"/><glyph id="glyph1102" unicode="g" horiz-adv-x="600" d="M578 342v93H410v-31c-37 30-86 43-136 43-143 0-242-97-242-219 0-123 98-217 239-217 50 0 101 14 139 44V16c0-59-3-106-118-106-73 0-165 24-203 35l-22-94c83-19 154-35 228-35 185 0 206 98 206 206v320h77M410 227c0-76-56-123-141-123-72 0-143 51-143 126 0 73 66 124 144 124 81 0 140-48 140-127z"/><glyph id="glyph1104" unicode="h" horiz-adv-x="600" d="M588 0v93h-77v189c0 32-4 63-17 91-6 13-37 74-138 74-57 0-102-21-148-47v221H39v-93h77V93H39V0h244v93h-75v204c68 49 120 58 147 58 52 0 64-33 64-66V93h-76V0h245z"/><glyph id="glyph1106" unicode="i" horiz-adv-x="600" d="M350 493v149H244V493h106M514 0v93H350v341H117v-93h140V93H90V0h424z"/><glyph id="glyph1108" unicode="m" horiz-adv-x="600" d="M615 0v93h-57v219c0 74-49 135-130 135-41 0-82-18-108-48-26 41-63 48-86 48-31 0-61-12-80-35v22H-15v-93h77V93h-77V0h247v93h-78v228c18 17 41 33 65 33 37 0 45-31 45-51V0h152v93h-60v220c24 32 51 41 68 41 33 0 42-28 42-38V0h149z"/><glyph id="glyph1110" unicode="n" horiz-adv-x="600" d="M576 0v93h-75v213c0 31-10 60-25 85-31 42-79 56-131 56-54 0-110-18-151-45v32H23v-93h79V93H25V0h247v93h-78v207c49 43 113 55 142 55 67 0 73-31 73-70V93h-76V0h243z"/><glyph id="glyph1112" unicode="o" horiz-adv-x="600" d="M555 218c0 113-82 230-254 230-130 0-257-79-257-232C44 47 197-12 306-12c115 0 249 68 249 230m-93 2c0-97-80-139-158-139-59 0-166 26-166 136 0 85 71 138 160 138 119 0 164-75 164-135z"/><glyph id="glyph1114" unicode="p" horiz-adv-x="600" d="M558 221c0 157-134 226-231 226-53 0-107-17-145-49v35H12v-93h78V-90H14v-93h310v93H182V38c20-15 72-50 149-50 132 0 227 104 227 233m-92-2c0-83-68-139-141-139-44 0-147 27-147 139 0 115 108 135 148 135 74 0 140-48 140-135z"/><glyph id="glyph1116" unicode="r" horiz-adv-x="600" d="M569 334c0 19-6 36-12 52-9 25-39 62-108 62s-129-44-179-84v70H69v-93h108V93H70V0h382v93H270v159c36 30 72 58 113 81 20 11 44 22 66 22 25 0 29-10 32-35l88 14z"/><glyph id="glyph1118" unicode="s" horiz-adv-x="600" d="M524 132c0 73-56 117-120 122l-125 10c-24 2-91 8-91 45 0 41 85 46 107 46 41 0 85-9 118-25v-56h92v174h-92v-23c-36 14-82 23-126 23-87 0-187-38-187-137 0-121 140-131 210-137 36-3 80 2 111-15 11-6 14-16 14-27 0-34-63-51-116-51-66 0-115 16-140 25v70H87V-12h92v29c43-17 94-29 145-29 111 0 200 56 200 144z"/><glyph id="glyph1120" unicode="t" horiz-adv-x="600" d="M547 48l-16 92c-36-16-136-60-201-60-75 0-80 44-80 87v174h238v93H250v133h-93V434H94v-93h63V145C157 8 259-12 329-12c76 0 153 32 218 60z"/><glyph id="glyph1122" unicode="u" horiz-adv-x="600" d="M573 0v93h-77v341H328v-93h76V140c-33-31-70-61-130-61-80 0-83 54-83 77v278H22v-93h78V158c0-38 4-60 10-77 23-66 99-93 162-93 50 0 95 18 132 43V0h169z"/><glyph id="glyph1124" unicode="x" horiz-adv-x="600" d="M581 0v93h-80L359 227l118 114h79v93H341v-93h17l-58-56-62 56h20v93H32v-93h82l122-116L100 93H18V0h232v93h-29l77 76 78-76h-27V0h232z"/></font>
</defs>
</svg>
