<svg xmlns="http://www.w3.org/2000/svg" id="svg2" xml:space="preserve" version="1.1" viewBox="0 0 210 297" fill-rule="evenodd"><defs id="defs4"><style id="style359" type="text/css">@font-face{font-family:&quot;Arial&quot;;src:url(#FontID0) format(svg)}</style><font id="FontID0" horiz-origin-x="0" horiz-origin-y="0" vert-origin-x="45" horiz-adv-x="90" vert-origin-y="90" vert-adv-y="90" font-weight="400,700"><font-face id="font-face7" font-family="Arial"/><glyph id="glyph13" horiz-adv-x="521" unicode="ь"><path id="path15" d="M64.489 518.5h87.839V316h111.33c72.674 0 128.52-14.173 167.67-42.343 39.331-28.134 58.819-66.969 58.819-116.47 0-43.193-16.299-80.363-48.969-111.01-32.67-30.827-85.005-46.17-157-46.17H64.488v518.5zm87.839-446.18h92.339c55.666 0 95.316 6.839 119.16 20.516 23.67 13.677 35.504 35.008 35.504 63.816 0 22.5-8.681 42.52-26.327 60.166-17.504 17.504-56.516 26.362-116.68 26.362h-104V72.32z"/></glyph><glyph id="glyph17" horiz-adv-x="802" unicode="ш"><path id="path19" d="M68.847 518.5h87.804V72.86h200.34V518.5h87.839V72.86h200.66V518.5h87.343V0H68.843v518.5z"/></glyph><glyph id="glyph21" horiz-adv-x="510" unicode="э"><path id="path23" d="M199.67 301.82V229.5h183.16c-5.492-56.339-20.162-98.505-43.654-126.67-23.67-28.17-56.516-42.343-98.505-42.343-74.162 0-117.99 43.016-131.32 129.01l-85.855-11.339c9-56.835 32.67-102.83 71.008-137.66 38.162-34.831 88.335-52.158 150.17-52.158 73.489-4.358 130.5 18.992 170.82 69.981 40.359 51.024 59.67 117.99 57.686 201.01 0 84.331-21.012 150.48-63 198.68-42.024 48.154-99.355 72.32-171.85 72.32-58.004 0-104.81-15.484-140.67-46.17-35.823-30.827-57.65-70.477-65.481-118.98l85.501-13.677c14.315 70.654 55.489 106.02 123.48 106.02 39.189 0 71.186-14.35 96.024-43.193 24.803-28.807 40.146-66.331 45.638-112.5h-183.16z"/></glyph><glyph id="glyph25" horiz-adv-x="572" unicode="ц"><path id="path27" d="M67.323 518.5h88.016V72.32h243.14V518.5h87.839V72.32h56.693v-219.33h-72.355V0H67.316v518.5z"/></glyph><glyph id="glyph29" horiz-adv-x="750" unicode="ю"><path id="path31" d="M66.827 518.5h88.016V301.82h106.34c7.83 74.162 31.004 130.86 69.662 169.83 38.481 39.012 88.654 58.678 150.17 58.678 52.335 0 93.65-10.665 123.98-31.819 30.331-21.189 55.17-50.351 75.012-87.343 19.666-37.17 29.516-87.166 29.516-149.99 0-89.505-20.339-157.36-61.016-203.53-40.819-46.311-95.989-69.308-165.65-69.308-64.701 0-116.68 21.508-155.69 64.312-38.977 43.016-60.981 102.01-65.977 176.85H154.85V0H66.834v518.5zm419-63c-42.981 0-76.323-16.512-100.31-49.5-24.024-32.988-35.859-79.335-35.859-138.83 0-71.327 12.012-123.66 36-156.83 24.166-33.166 56.339-49.855 96.839-49.855 40.004 0 72.851 15.52 98.328 46.17 25.512 30.862 38.339 80.363 38.339 148.68 0 66.827-11.162 116.82-33.166 150.17-22.146 33.343-55.489 49.996-100.17 49.996z"/></glyph><glyph id="glyph33" horiz-adv-x="541" unicode="я"><path id="path35" d="M474.17 518.5V0h-87.485v202.18h-50.67c-31.004 0-54-4.004-69.166-12.012-15.166-8.008-37.17-33.662-66.19-76.855L124.017-.007H15.167l94.678 139.68c28.984 42.662 57.827 66.65 86.493 72.142-50.174 7.016-87.343 25.016-111.69 54.355-24.166 29.162-36.319 63-36.319 100.98 0 45 15.839 81.355 47.658 109.35 31.677 27.992 77.67 41.988 137.84 41.988h240.34zm-87.485-72.674h-125.01c-52.335 0-86.174-8.15-101.34-24.484-14.988-16.158-22.677-35.327-22.677-57.012 0-31.004 11.162-53.646 33.52-68.174 22.323-14.492 61.654-21.827 118.31-21.827h97.194v171.5z"/></glyph><glyph id="glyph37" horiz-adv-x="500" unicode="х"><path id="path39" d="M7.335 0l189.5 269.51L21.515 518.5h109.81l79.69-121.5c14.81-23.173 27-42.485 36-58.146 14.315 21.473 27.496 40.5 39.65 57.154l87.343 122.49h104.99l-179.15-244.17L492.678.008h-107.82l-106.51 161.15-28.311 43.512L113.867.01H7.357z"/></glyph><glyph id="glyph41" horiz-adv-x="458" unicode="т"><path id="path43" d="M18.496 518.5h421.52v-72.674h-167V.006h-87.52v445.82h-167V518.5z"/></glyph><glyph id="glyph45" horiz-adv-x="500" unicode="с"><path id="path47" d="M404.33 189.99l86.351-11.339c-9.354-59.493-33.52-106.16-72.532-139.82-38.8-33.662-86.634-50.492-143.33-50.492-70.831 0-127.98 23.173-171 69.485-43.158 46.347-64.808 112.86-64.808 199.49 0 56.02 9.319 105.02 27.815 147.01 18.673 41.988 46.843 73.489 84.827 94.501 37.843 21.012 79.194 31.5 123.66 31.5 56.339 0 102.51-14.315 138.19-42.839 35.823-28.488 58.819-68.812 68.989-121.32l-85.501-13.181c-8.15 34.831-22.5 61.016-43.158 78.662-20.658 17.504-45.674 26.362-75.012 26.362-44.327 0-80.327-15.839-108-47.693-27.673-31.642-41.492-81.816-41.492-150.48 0-69.662 13.323-120.33 40.181-152.01 26.646-31.5 61.477-47.339 104.49-47.339 34.477 0 63.178 10.665 86.316 31.855 23.173 21.154 37.843 53.646 44.008 97.654z"/></glyph><glyph id="glyph49" horiz-adv-x="718" unicode="ы"><path id="path51" d="M559.49 518.5h88.016V0H559.49v518.5zm-491.67 0h88.016V316h111.33c72.497 0 128.52-14.173 167.67-42.343 39.154-28.134 58.819-66.969 58.819-116.47 0-43.193-16.335-80.363-49.146-111.01C411.839 15.35 359.504.007 287.679.007H67.819v518.5zm88.016-446.18h92.162c55.666 0 95.493 6.839 119.16 20.516 23.847 13.677 35.681 35.008 35.681 63.816 0 22.5-8.858 42.52-26.327 60.166-17.681 17.504-56.516 26.362-116.68 26.362h-104V72.32z"/></glyph><glyph id="glyph53" horiz-adv-x="521" unicode="ч"><path id="path55" d="M33.662 518.5h88.016v-98.15c0-42.166 2.48-73.028 7.476-92.02s17.185-35.646 36.355-49.819c19.17-14.173 43.335-21.189 72.32-21.189 33.166 0 76.182 8.858 128.84 26.362v234.82h88.016V.004H366.67v208.99c-54-16.973-104.49-25.335-151.34-25.335-39.33 0-74.162 10.028-104.17 30.012-30.154 20.02-50.67 44.504-61.335 73.489-10.807 28.843-16.158 60.839-16.158 95.67V518.5z"/></glyph><glyph id="glyph57" horiz-adv-x="500" unicode="у"><path id="path59" d="M62.008-199.67l-9.85 82.489c19.346-5.138 36-7.83 50.35-7.83 19.489 0 35.15 3.33 46.809 9.85 11.834 6.484 21.365 15.484 28.842 27.319 5.67 8.68 14.492 30.508 26.858 65.339 1.666 4.996 4.323 12.012 7.831 21.508l-196.69 519.49h94.678l108-300.16c13.82-38.162 26.504-78.166 37.488-120.19 10.17 40.359 22.181 79.69 36.178 118.17l110.84 302.18h87.84L293.991-8.825c-21.155-57.012-37.667-96.166-49.324-117.67-15.662-29.02-33.484-50.174-53.682-63.674-20.303-13.5-44.327-20.34-72.32-20.34-17.008 0-35.823 3.686-56.658 10.844z"/></glyph><glyph id="glyph61" horiz-adv-x="556" unicode="р"><path id="path63" d="M66.012-198.68v717.17h79.973v-67.323c18.85 26.327 40.181 46.17 64.028 59.315 23.67 13.181 52.477 19.843 86.316 19.843 44.327 0 83.339-11.48 117.18-34.158 33.981-22.854 59.493-54.993 76.642-96.52 17.362-41.492 26.008-86.989 26.008-136.49 0-53.008-9.496-100.84-28.666-143.33-18.992-42.485-46.666-75.012-82.985-97.654-36.355-22.5-74.516-33.839-114.52-33.839-29.303 0-55.489 6.165-78.804 18.496-23.351 12.331-42.343 27.992-57.367 46.843v-252.36H66.013zm79.477 455c0-66.65 13.5-116.01 40.5-148 27-31.819 59.847-47.835 98.186-47.835 38.977 0 72.497 16.512 100.31 49.678 27.851 32.988 41.847 84.154 41.847 153.5 0 66.19-13.677 115.51-40.819 148.5-27.177 32.847-59.67 49.323-97.335 49.323-37.524 0-70.69-17.469-99.497-52.477-28.843-35.008-43.193-85.997-43.193-152.68z"/></glyph><glyph id="glyph65" horiz-adv-x="556" unicode="ё"><path id="path67" d="M420.84 167l90.816-11.162c-14.315-53.186-40.819-94.324-79.477-123.66-38.835-29.162-88.335-43.831-148.5-43.831-75.863 0-136.03 23.315-180.36 69.981-44.504 46.666-66.65 112.18-66.65 196.51 0 87.343 22.5 154.98 67.323 203.18 45 48.154 103.18 72.32 174.83 72.32 69.343 0 126-23.67 169.83-70.831 44.008-47.162 66.012-113.67 66.012-199.17 0-5.315-.177-13.146-.496-23.492h-386.68c3.189-57.012 19.347-100.67 48.33-130.82 29.02-30.366 65.02-45.532 108.36-45.532 32.175 0 59.67 8.504 82.49 25.512 22.819 16.831 40.819 43.831 54.178 81.001zm-288.5 142.16h289.49c-3.827 43.512-14.988 76.359-33.166 98.009-27.992 33.839-64.347 50.847-108.85 50.847-40.323 0-74.304-13.5-101.8-40.5-27.532-27-42.697-63.178-45.674-108.36zm6.307 311v100.03h91.843V620.16h-91.843zm182.02 0v100.03h91.843V620.16h-91.843z"/></glyph><glyph id="glyph69" horiz-adv-x="222" unicode="і"><path id="path71" d="M66.331 614.66v101.16h88.016V614.66H66.331zm0-614.66v518.5h88.016V0H66.331z"/></glyph><glyph id="glyph73" horiz-adv-x="500" unicode="ў"><path id="path75" d="M62.008-199.67l-9.85 82.489c19.346-5.138 36-7.83 50.35-7.83 19.489 0 35.15 3.33 46.809 9.85 11.834 6.484 21.365 15.484 28.842 27.319 5.67 8.68 14.492 30.508 26.858 65.339 1.666 4.996 4.323 12.012 7.831 21.508l-196.69 519.49h94.678l108-300.16c13.82-38.162 26.504-78.166 37.488-120.19 10.17 40.359 22.181 79.69 36.178 118.17l110.84 302.18h87.84L293.991-8.825c-21.155-57.012-37.667-96.166-49.324-117.67-15.662-29.02-33.484-50.174-53.682-63.674-20.303-13.5-44.327-20.34-72.32-20.34-17.008 0-35.823 3.686-56.658 10.844zm278.33 914.5h59.989c-4.819-40.678-19.666-72.001-44.646-93.65-24.839-21.862-58.004-32.847-99.355-32.847-41.67 0-74.977 10.843-99.816 32.492-25.016 21.685-39.827 53.008-44.682 94.005h59.989c4.5-22.181 13.677-38.658 27.177-49.5 13.5-10.984 31.677-16.335 54.355-16.335 26.469 0 46.311 5.173 59.812 15.839 13.5 10.488 22.677 27.177 27.177 49.996z"/></glyph><glyph id="glyph77" horiz-adv-x="222" unicode="ĺ"><path id="path79" d="M64.015 0v715.83h87.825V0H64.015zM32.173 752.49L97.18 889.17h115.13L105.02 752.49H32.171z"/></glyph><glyph id="glyph81" horiz-adv-x="277"/><glyph id="glyph83" horiz-adv-x="722" unicode="N"><path id="path85" d="M76.156 0v715.83h97.18l376.01-562.01v562.01h90.802V0h-97.132l-376.01 562.48V0H76.157z"/></glyph><glyph id="glyph87" horiz-adv-x="610" unicode="F"><path id="path89" d="M82.014 0v715.83h482.97v-84.518h-388.15v-221.67h335.85v-84.471h-335.85V-.009H82.017z"/></glyph><glyph id="glyph91" horiz-adv-x="722" unicode="H"><path id="path93" d="M79.983 0v715.83h94.865v-294h371.99v294h94.817V0h-94.817v337.32h-371.99V0H79.983z"/></glyph><glyph id="glyph95" horiz-adv-x="556" unicode="L"><path id="path97" d="M73.18 0v715.83h94.817V84.52h352.48V.002h-447.3z"/></glyph><glyph id="glyph99" horiz-adv-x="666" unicode="K"><path id="path101" d="M73.18 0v715.83h94.817V360.84l355.51 354.99h128.31l-300.33-289.98L664.997 0h-125.01l-254.83 362.36-117.16-114.38V0H73.18z"/></glyph><glyph id="glyph103" horiz-adv-x="499" unicode="J"><path id="path105" d="M28.818 203.15l85.51 11.669c2.173-54.661 12.52-92.172 30.661-112.3 18.33-20.173 43.511-30.188 75.684-30.188 23.811 0 44.314 5.339 61.511 16.346 17.338 10.819 29.149 25.653 35.669 44.314 6.472 18.85 9.827 48.661 9.827 89.668v493.17h94.676v-487.84c0-59.81-7.181-106.34-21.685-139.18-14.504-32.834-37.511-57.826-68.834-75.164-31.511-17.149-68.314-25.842-110.69-25.842-62.834 0-110.83 18-144.33 54.188-33.307 36.188-49.322 89.857-48 161.15z"/></glyph><glyph id="glyph107" horiz-adv-x="666" unicode="A"><path id="path109" d="M-1.512 0l275 715.83h102L668.488 0h-108L477.01 216.85H177.68L99.161 0H-1.519zm206.5 294h242.83l-74.834 198.19c-22.63 60.141-39.637 109.65-50.645 148.49-9.165-46.015-22.015-91.51-38.692-136.82L204.987 294z"/></glyph><glyph id="glyph111" horiz-adv-x="832" unicode="M"><path id="path113" d="M74.172 0v715.83h142.68L386.172 209c15.685-47.149 27.165-82.487 34.157-106.01 8.173 26.031 20.834 64.345 38.173 114.85l171.35 497.99h127.46V0h-91.321v599.19L457.981 0h-85.463l-207.02 609.34V0H74.177z"/></glyph><glyph id="glyph115" horiz-adv-x="666" unicode="B"><path id="path117" d="M73.18 0v715.83h268.67c54.661 0 98.502-7.323 131.48-21.685 33.165-14.456 59.007-36.803 77.668-66.991 18.661-30 28.157-61.511 28.157-94.487 0-30.519-8.315-59.338-24.992-86.314-16.488-27.023-41.669-48.85-75.164-65.526 43.322-12.661 76.487-34.346 99.825-64.818 23.338-30.661 35.007-66.849 35.007-108.52 0-33.496-7.181-64.676-21.354-93.495-14.126-28.818-31.653-50.976-52.487-66.66-20.834-15.685-47.007-27.354-78.33-35.338-31.322-7.984-69.826-12-115.51-12H73.18zm94.817 414.99h154.82c41.858 0 71.999 2.835 90.329 8.362 24.047 7.134 42.188 18.992 54.377 35.67 12.142 16.63 18.33 37.463 18.33 62.502 0 23.67-5.67 44.645-17.008 62.645-11.527 18.19-27.826 30.52-48.85 37.18-21.165 6.661-57.495 9.968-108.99 9.968h-143.01v-216.33zm0-330.47h178.16c30.661 0 52.204 1.134 64.534 3.307 21.826 4.016 39.968 10.488 54.661 19.653 14.645 9.023 26.645 22.346 36.141 39.684 9.354 17.48 14.173 37.511 14.173 60.33 0 26.692-6.85 49.842-20.504 69.684-13.653 19.653-32.645 33.496-56.976 41.48-24.189 7.842-59.196 11.858-104.69 11.858h-165.49v-246z"/></glyph><glyph id="glyph119" horiz-adv-x="610" unicode="T"><path id="path121" d="M259.32 0v631.31H23.48v84.518h567.34V631.31H353.99V0h-94.676z"/></glyph><glyph id="glyph123" horiz-adv-x="666" unicode="S"><path id="path125" d="M45.023 229.98l89.29 7.842c4.205-35.81 14.031-65.149 29.527-88.156 15.496-23.008 39.495-41.48 71.999-55.653 32.503-14.173 69.164-21.165 109.84-21.165 36.141 0 67.983 5.339 95.668 15.968 27.637 10.866 48.33 25.511 61.842 44.172 13.464 18.85 20.315 39.165 20.315 61.322 0 22.535-6.52 42-19.653 58.865-13.039 16.82-34.535 30.803-64.345 42.141-19.322 7.512-61.653 19.181-127.51 35.007-65.668 15.826-111.82 30.661-138.14 44.692-34.204 17.811-59.668 40.157-76.534 66.66-16.677 26.504-24.992 56.172-24.992 89.148 0 36 10.157 69.826 30.661 101.2 20.504 31.464 50.503 55.322 89.857 71.668 39.495 16.157 83.148 24.33 131.34 24.33 53.149 0 99.825-8.503 140.5-25.7 40.488-17.008 71.668-42.14 93.495-75.306 21.638-33.165 33.496-70.865 35.149-112.86l-90.849-6.803c-4.96 45.165-21.496 79.511-49.653 102.47-28.157 23.196-69.684 34.677-124.68 34.677-57.306 0-98.975-10.488-125.34-31.51-26.126-20.977-39.306-46.299-39.306-75.827 0-25.842 9.307-47.007 27.826-63.495 18.33-16.677 65.81-33.684 142.82-50.976 77.007-17.527 129.82-32.692 158.5-45.684 41.669-19.322 72.518-43.653 92.361-72.99 19.842-29.528 29.669-63.496 29.669-101.86 0-38.174-10.866-73.984-32.692-107.67-21.826-33.638-53.149-59.81-94.014-78.66-40.818-18.662-86.833-28.016-137.81-28.016-64.818 0-119.15 9.355-162.85 28.346-43.842 18.85-78.14 47.196-103.13 85.18-24.85 37.842-38.031 80.833-39.165 128.64z"/></glyph><glyph id="glyph127" horiz-adv-x="499" unicode="š"><path id="path129" d="M30.85 154.82l86.833 13.701c4.819-34.866 18.472-61.511 40.818-80.172 22.157-18.519 53.338-27.826 93.495-27.826 40.346 0 70.345 8.315 89.857 24.661 19.464 16.488 29.291 35.81 29.291 57.826 0 19.984-8.646 35.48-25.984 47.007-12 7.842-41.999 17.669-89.81 29.669-64.345 16.299-109.18 30.33-134.03 42.33-24.803 11.811-43.842 28.299-56.645 49.322-12.85 20.976-19.322 44.172-19.322 69.495 0 23.149 5.291 44.503 15.968 64.156 10.488 19.842 24.992 36.188 43.18 49.18 13.653 10.016 32.314 18.661 55.842 25.653 23.669 6.992 48.991 10.535 75.967 10.535 40.676 0 76.345-6 107.2-17.669 30.85-11.669 53.48-27.496 68.172-47.527 14.645-20.173 24.661-46.818 30.141-80.314l-85.841-11.858c-3.968 26.692-15.307 47.527-33.968 62.503-18.661 15.023-45.165 22.488-79.322 22.488-40.346 0-69.212-6.661-86.361-19.984-17.338-13.323-25.984-29.007-25.984-46.818 0-11.527 3.638-21.685 10.819-30.85 7.181-9.496 18.33-17.149 33.684-23.48 8.834-3.165 34.629-10.677 77.668-22.346 62.172-16.677 105.49-30.188 129.97-40.818 24.661-10.535 44.031-26.031 58.015-46.204 13.984-20.126 21.023-45.165 21.023-75.164 0-29.291-8.693-56.834-25.7-82.818-17.149-25.842-41.81-45.826-73.983-59.999s-68.692-21.165-109.32-21.165c-67.511 0-118.86 13.984-154.2 41.999-35.291 28.015-57.826 69.495-67.464 124.49zm216.8 481.84l53.668 83.007h99.684l-109.84-136.68h-93.825l-105.49 136.68h100.68l55.133-83.007z"/></glyph><glyph id="glyph131" horiz-adv-x="666" unicode="P"><path id="path133" d="M77.148 0v715.83h270c47.527 0 83.857-2.315 108.85-6.85 35.196-5.811 64.676-16.96 88.487-33.496 23.669-16.3 42.85-39.495 57.353-68.975 14.504-29.67 21.685-62.172 21.685-97.7 0-60.801-19.37-112.49-58.015-154.63-38.834-41.998-108.85-63.163-210-63.163h-183.68V-.004H77.152zm94.676 375.49h185.19c61.133 0 104.64 11.338 130.3 34.157 25.7 22.866 38.503 54.85 38.503 96.188 0 30-7.464 55.653-22.63 77.007-15.212 21.307-35.007 35.338-59.857 42.141-16.016 4.205-45.354 6.33-88.345 6.33h-183.16v-255.82z"/></glyph><glyph id="glyph135" horiz-adv-x="556" unicode="ŭ"><path id="path137" d="M405.82 0v76.156c-40.488-58.676-95.337-87.825-164.64-87.825-30.519 0-59.196 5.858-85.699 17.48-26.456 11.669-46.157 26.504-58.96 44.172-13.039 17.858-22.015 39.495-27.165 65.196-3.543 17.338-5.338 44.645-5.338 82.156v321.16h87.825v-287.48c0-46.015 1.842-76.865 5.338-92.833 5.67-23.196 17.338-41.196 35.149-54.519 18-13.181 40.157-19.653 66.519-19.653 26.314 0 50.976 6.661 74.172 20.173 23.149 13.464 39.495 31.984 48.991 55.133 9.638 23.338 14.504 57.164 14.504 101.34v277.84h87.825V-.004h-78.518zm-39.637 714.84h59.999c-4.866-40.676-19.7-71.999-44.692-93.684-24.803-21.826-57.968-32.834-99.306-32.834-41.669 0-75.022 10.866-99.872 32.503-24.992 21.685-39.826 53.007-44.645 94.014h59.999c4.488-22.157 13.653-38.692 27.165-49.511 13.512-11.008 31.653-16.346 54.33-16.346 26.504 0 46.346 5.197 59.857 15.874 13.464 10.488 22.63 27.165 27.165 49.984z"/></glyph><glyph id="glyph139" horiz-adv-x="722" unicode="U"><path id="path141" d="M546.84 715.83h94.817V302.17c0-71.857-8.173-129.02-24.472-171.35-16.346-42.33-45.684-76.629-88.203-103.13C486.51.998 430.81-12.183 361.832-12.183c-66.991 0-121.98 11.527-164.5 34.677-42.661 23.008-73.18 56.503-91.321 100.34-18.33 43.842-27.354 103.51-27.354 179.34v413.66h94.676v-413.14c0-62.172 5.81-108 17.338-137.34 11.48-29.527 31.511-52.204 59.479-68.172 28.157-16.016 62.692-24 103.37-24 69.637 0 119.29 15.826 148.96 47.48 29.527 31.511 44.362 92.172 44.362 182.03v413.14z"/></glyph><glyph id="glyph143" horiz-adv-x="499" unicode="ž"><path id="path145" d="M19.512 0v71.338l330.14 378.84c-37.464-2.031-70.487-2.835-99.164-2.835H39.028v71.148h423.82v-58.015l-280.67-329.14-54.188-59.999c39.354 2.835 76.345 4.347 110.83 4.347h239.67V0H19.52zm245.66 636.65l53.668 83.007h99.636l-109.79-136.68h-93.872l-105.49 136.68h100.68l55.18-83.007z"/></glyph><glyph id="glyph147" horiz-adv-x="556" unicode="b"><path id="path149" d="M147.02 0H65.478v715.83h87.873V460.48c37.133 46.535 84.471 69.873 141.97 69.873 32.031 0 62.172-6.52 90.66-19.37 28.535-12.803 51.873-30.992 70.345-54.141 18.33-23.338 32.834-51.354 43.18-84.329 10.488-32.834 15.685-68.03 15.685-105.35 0-89.006-22.015-157.65-65.999-206.17-43.842-48.472-96.707-72.66-158.17-72.66-61.18 0-109.18 25.511-144 76.676V.002zm-1.04 263.14c0-62.125 8.504-106.96 25.37-134.64 27.638-45.354 65.15-67.983 112.3-67.983 38.504 0 71.669 16.63 99.685 50.125 28.015 33.354 41.999 83.007 41.999 149.2 0 67.652-13.512 117.68-40.346 149.81-26.834 32.173-59.338 48.33-97.321 48.33-38.503 0-71.668-16.63-99.684-49.984-27.968-33.307-42-81.684-42-144.85z"/></glyph><glyph id="glyph151" horiz-adv-x="832" unicode="m"><path id="path153" d="M65.999 0v518.5h78.518v-72.66c16.299 25.322 37.984 45.826 64.96 61.18 27.023 15.496 57.873 23.338 92.361 23.338 38.314 0 69.826-8.031 94.345-24 24.661-16.016 41.999-38.173 51.968-66.849 41.196 60.472 94.534 90.849 160.2 90.849 51.495 0 90.991-14.362 118.63-42.85 27.685-28.488 41.527-72.33 41.527-131.52V.008h-87.353v326.69c0 35.149-2.835 60.472-8.504 75.967-5.81 15.354-16.157 27.826-30.992 37.322-14.976 9.354-32.645 14.173-52.818 14.173-36.519 0-66.66-12.142-90.849-36.472-24-24.189-36.14-63.023-36.14-116.36V.008h-87.874v336.84c0 39.165-7.134 68.503-21.496 87.967-14.315 19.512-37.653 29.338-70.298 29.338-24.66 0-47.527-6.472-68.503-19.653-21.023-12.992-36.33-31.984-45.684-56.976-9.496-25.181-14.173-61.369-14.173-108.52v-269H66z"/></glyph><glyph id="glyph155" horiz-adv-x="556" unicode="e"><path id="path157" d="M420.84 167l90.802-11.149c-14.315-53.196-40.818-94.345-79.463-123.68-38.834-29.149-88.345-43.842-148.53-43.842-75.826 0-135.97 23.338-180.33 70.015-44.503 46.676-66.66 112.16-66.66 196.48 0 87.353 22.488 155 67.322 203.15 45.023 48.188 103.18 72.377 174.85 72.377 69.353 0 126-23.669 169.84-70.865 43.984-47.149 65.999-113.67 65.999-199.18 0-5.291-.189-13.134-.52-23.48H127.51c3.166-56.976 19.322-100.68 48.33-130.82 29.007-30.33 65.007-45.495 108.33-45.495 32.173 0 59.668 8.504 82.487 25.464 22.866 16.866 40.866 43.842 54.188 81.022zM132.32 309.16h289.51c-3.827 43.511-15.023 76.345-33.165 97.983-28.015 33.874-64.345 50.834-108.85 50.834-40.346 0-74.314-13.464-101.81-40.488-27.496-26.976-42.661-63.164-45.684-108.33z"/></glyph><glyph id="glyph159" horiz-adv-x="556" unicode="n"><path id="path161" d="M65.999 0v518.5h78.991v-73.652c38.173 56.976 93.164 85.51 165.02 85.51 31.322 0 59.999-5.67 86.172-16.866 26.314-11.338 45.826-25.984 58.818-44.314 13.181-18.189 22.157-39.826 27.496-64.818 3.165-16.346 4.819-44.834 4.819-85.51V.01h-87.967V315.5c0 35.669-3.355 62.503-10.205 80.361-6.803 17.669-18.992 31.795-36.33 42.33-17.48 10.63-37.795 15.968-61.322 15.968-37.511 0-69.637-12-96.991-35.669-27.165-23.811-40.676-68.834-40.676-135.3V.01H65.999z"/></glyph><glyph id="glyph163" horiz-adv-x="222" unicode="i"><path id="path165" d="M66.33 614.68v101.15h88.014V614.68H66.33zM66.33 0v518.5h88.014V0H66.33z"/></glyph><glyph id="glyph167" horiz-adv-x="222" unicode="l"><path id="path169" d="M64.015 0v715.83h87.825V0H64.015z"/></glyph><glyph id="glyph171" horiz-adv-x="222" unicode="j"><path id="path173" d="M65.479 613.83v102h87.873v-102H65.479zm-111.3-815l16.488 74.644c17.669-4.488 31.511-6.803 41.527-6.803 18 0 31.322 6 39.968 17.811 8.835 11.858 13.323 41.669 13.323 89.195v544.81h87.873v-546.84c0-63.826-8.362-108.14-24.85-133.32-21.165-32.503-56.314-48.85-105.49-48.85-23.858 0-46.818 3.165-68.834 9.354z"/></glyph><glyph id="glyph175" horiz-adv-x="556" unicode="d"><path id="path177" d="M402.32 0v65.479c-32.834-51.495-81.164-77.148-144.99-77.148-41.338 0-79.322 11.338-114 34.157-34.677 22.677-61.511 54.519-80.692 95.526-18.992 40.818-28.488 87.636-28.488 140.83 0 51.637 8.693 98.644 25.842 140.83 17.338 42.141 43.18 74.503 77.668 96.802 34.488 22.535 73.18 33.874 115.84 33.874 31.181 0 59.007-6.709 83.337-19.842 24.472-13.181 44.314-30.33 59.668-51.495v256.82h87.306V.003h-81.495zM124.48 258.85c0-66.519 14.031-116.17 41.999-149.01 28.015-32.834 60.991-49.322 99.164-49.322 38.362 0 71.007 15.826 97.841 47.149 26.834 31.322 40.346 79.322 40.346 143.86 0 70.96-13.653 122.97-41.007 156.14-27.307 33.354-60.991 49.842-101.15 49.842-39.023 0-71.668-16.016-97.841-47.858-26.173-31.795-39.354-82.156-39.354-150.8z"/></glyph><glyph id="glyph179" horiz-adv-x="556" unicode="o"><path id="path181" d="M33.165 259.32c0 95.998 26.645 167.19 80.172 213.35 44.503 38.314 98.833 57.684 162.99 57.684 71.338 0 129.68-23.338 174.85-70.204 45.306-46.629 67.842-111.16 67.842-193.46 0-66.849-10.016-119.34-30-157.51-20.031-38.362-49.18-68.03-87.353-89.195-38.314-21.165-79.983-31.653-125.34-31.653-72.471 0-131.15 23.149-175.98 69.826-44.834 46.488-67.18 113.53-67.18 201.16zm90.329 0c0-66.471 14.504-116.17 43.511-149.15 29.007-33.165 65.479-49.653 109.32-49.653 43.653 0 80.03 16.63 108.99 49.794 28.866 33.165 43.369 83.857 43.369 151.84 0 64.156-14.504 112.86-43.7 145.84-29.149 33.023-65.338 49.511-108.66 49.511-43.842 0-80.314-16.488-109.32-49.322-29.007-32.834-43.511-82.534-43.511-148.86z"/></glyph><glyph id="glyph183" horiz-adv-x="556" unicode="h"><path id="path185" d="M65.999 0v715.83h87.825V459.01c41.007 47.48 92.833 71.338 155.34 71.338 38.362 0 71.668-7.7 100.01-22.866 28.346-14.976 48.661-35.999 60.802-62.645 12.189-26.692 18.378-65.526 18.378-116.17V-.003H400.34v328.67c0 43.842-9.496 75.826-28.488 95.81-19.039 20.031-46.015 30.188-80.833 30.188-26.031 0-50.503-6.85-73.511-20.315-23.008-13.512-39.354-31.842-48.991-55.038-9.874-22.96-14.693-54.991-14.693-95.668V-.006H65.999z"/></glyph><glyph id="glyph187" horiz-adv-x="499" unicode="c"><path id="path189" d="M404.36 190.01l86.314-11.338c-9.354-59.527-33.496-106.16-72.518-139.84-38.834-33.684-86.644-50.503-143.34-50.503-70.818 0-127.98 23.149-170.97 69.495-43.18 46.346-64.818 112.86-64.818 199.51 0 55.983 9.307 105.02 27.826 147.02 18.661 41.999 46.818 73.463 84.802 94.487 37.842 20.976 79.18 31.511 123.68 31.511 56.314 0 102.52-14.362 138.19-42.85 35.81-28.488 58.818-68.834 68.975-121.32l-85.51-13.181c-8.173 34.818-22.488 60.991-43.133 78.66-20.693 17.527-45.684 26.314-75.022 26.314-44.314 0-80.314-15.826-108-47.621-27.685-31.7-41.48-81.873-41.48-150.52 0-69.684 13.323-120.33 40.157-151.98 26.645-31.511 61.511-47.338 104.5-47.338 34.488 0 63.164 10.63 86.314 31.795 23.196 21.165 37.842 53.668 44.031 97.699z"/></glyph><glyph id="glyph191" horiz-adv-x="499" unicode="k"><path id="path193" d="M66.33 0v715.83h88.014V307.65l208.01 210.85h113.62l-198.14-192.33L496.144 0h-108.47l-171.35 265.18-61.983-59.668V.002H66.327z"/></glyph><glyph id="glyph195" horiz-adv-x="556" unicode="a"><path id="path197" d="M404.36 64.015c-32.692-27.685-64.015-47.196-94.014-58.676-30.188-11.338-62.503-17.008-96.991-17.008-57.023 0-100.68 13.842-131.34 41.669-30.519 27.826-45.826 63.495-45.826 106.68 0 25.511 5.622 48.661 17.291 69.637 11.527 21.023 26.692 37.842 45.354 50.503 18.85 12.708 39.826 22.346 63.353 28.866 17.149 4.488 43.133 8.976 77.999 13.134 70.96 8.504 123.3 18.519 156.8 30.33.33 12 .52 19.7.52 22.866 0 35.81-8.362 61.133-24.992 75.637-22.346 20.031-55.842 29.858-100.01 29.858-41.338 0-71.81-7.181-91.652-21.685-19.7-14.504-34.204-40.157-43.7-77.007l-85.794 11.858c7.795 36.661 20.645 66.519 38.503 89.006 17.81 22.677 43.795 40.157 77.62 52.346 33.875 12.142 73.039 18.33 117.68 18.33 44.363 0 80.173-5.338 107.86-15.685 27.638-10.488 48-23.48 61.134-39.354 13.039-15.826 22.015-35.669 27.354-59.81 2.834-15.023 4.346-41.999 4.346-81.022v-117.16c0-81.826 1.795-133.46 5.67-155C495.161 40.69 502.672 19.856 513.68.014h-91.84c-9.024 18.189-15.024 39.495-17.48 64.015zm-7.37 196.3c-31.984-13.134-79.841-24.141-143.48-33.307-36.188-5.15-61.842-11.008-76.676-17.527-14.976-6.472-26.645-15.968-34.677-28.63-8.173-12.52-12.33-26.362-12.33-41.669 0-23.527 9.024-42.991 26.692-58.676 17.669-15.496 43.653-23.338 77.81-23.338 33.826 0 64.015 7.323 90.329 22.157 26.362 14.834 45.826 35.196 58.157 60.849 9.543 19.842 14.173 49.18 14.173 87.825v32.314z"/></glyph><glyph id="glyph199" horiz-adv-x="499" unicode="z"><path id="path201" d="M19.512 0v71.338l330.14 378.84c-37.464-2.031-70.487-2.835-99.164-2.835H39.028v71.148h423.82v-58.015l-280.67-329.14-54.188-59.999c39.354 2.835 76.345 4.347 110.83 4.347h239.67V0H19.52z"/></glyph><glyph id="glyph203" horiz-adv-x="556" unicode="p"><path id="path205" d="M65.999-198.66v717.15h79.983v-67.322c18.85 26.314 40.204 46.157 64.015 59.338 23.669 13.134 52.487 19.842 86.314 19.842 44.362 0 83.337-11.527 117.21-34.204 33.968-22.818 59.479-54.991 76.629-96.471 17.338-41.527 26.031-87.022 26.031-136.53 0-52.96-9.496-100.82-28.677-143.29-18.992-42.519-46.676-75.022-83.007-97.699-36.33-22.488-74.503-33.826-114.52-33.826-29.291 0-55.464 6.189-78.802 18.519s-42.33 27.968-57.353 46.818v-252.33H65.997zm79.511 455c0-66.66 13.512-116.03 40.488-148.01 27.023-31.842 59.857-47.81 98.172-47.81 38.976 0 72.518 16.488 100.34 49.653 27.826 32.976 41.81 84.14 41.81 153.49 0 66.188-13.653 115.51-40.818 148.49-27.165 32.834-59.668 49.369-97.321 49.369-37.511 0-70.676-17.527-99.494-52.535-28.866-35.007-43.18-85.983-43.18-152.64z"/></glyph><glyph id="glyph207" horiz-adv-x="499" unicode="v"><path id="path209" d="M210 0L12.66 518.5h92.833l111.35-310.48c12-33.496 23.008-68.361 33.165-104.5 7.842 27.307 18.661 60.141 32.645 98.644l115.32 316.34h90.376L292.009.004h-82.014z"/></glyph><glyph id="glyph211" horiz-adv-x="277" unicode="t"><path id="path213" d="M257.85 78.66L270.511.992c-24.661-5.15-46.865-7.842-66.33-7.842-32.031 0-56.692 5.007-74.361 15.165-17.48 10.016-29.811 23.338-36.992 39.873-7.181 16.299-10.819 50.976-10.819 103.65v298.34H17.475v68.314h64.534v128.5l87.495 52.676v-181.18h88.345v-68.314h-88.345v-303.16c0-25.181 1.512-41.196 4.488-48.377 3.165-7.134 8.173-12.803 15.165-17.15 6.992-4.157 17.008-6.33 30-6.33 9.827 0 22.677 1.181 38.692 3.496z"/></glyph><glyph id="glyph215" horiz-adv-x="499" unicode="s"><path id="path217" d="M30.85 154.82l86.833 13.701c4.819-34.866 18.472-61.511 40.818-80.172 22.157-18.519 53.338-27.826 93.495-27.826 40.346 0 70.345 8.315 89.857 24.661 19.464 16.488 29.291 35.81 29.291 57.826 0 19.984-8.646 35.48-25.984 47.007-12 7.842-41.999 17.669-89.81 29.669-64.345 16.299-109.18 30.33-134.03 42.33-24.803 11.811-43.842 28.299-56.645 49.322-12.85 20.976-19.322 44.172-19.322 69.495 0 23.149 5.291 44.503 15.968 64.156 10.488 19.842 24.992 36.188 43.18 49.18 13.653 10.016 32.314 18.661 55.842 25.653 23.669 6.992 48.991 10.535 75.967 10.535 40.676 0 76.345-6 107.2-17.669 30.85-11.669 53.48-27.496 68.172-47.527 14.645-20.173 24.661-46.818 30.141-80.314l-85.841-11.858c-3.968 26.692-15.307 47.527-33.968 62.503-18.661 15.023-45.165 22.488-79.322 22.488-40.346 0-69.212-6.661-86.361-19.984-17.338-13.323-25.984-29.007-25.984-46.818 0-11.527 3.638-21.685 10.819-30.85 7.181-9.496 18.33-17.149 33.684-23.48 8.834-3.165 34.629-10.677 77.668-22.346 62.172-16.677 105.49-30.188 129.97-40.818 24.661-10.535 44.031-26.031 58.015-46.204 13.984-20.126 21.023-45.165 21.023-75.164 0-29.291-8.693-56.834-25.7-82.818-17.149-25.842-41.81-45.826-73.983-59.999s-68.692-21.165-109.32-21.165c-67.511 0-118.86 13.984-154.2 41.999-35.291 28.015-57.826 69.495-67.464 124.49z"/></glyph><glyph id="glyph219" horiz-adv-x="499" unicode="y"><path id="path221" d="M61.983-199.65l-9.827 82.487c19.322-5.15 36-7.842 50.361-7.842 19.464 0 35.15 3.354 46.818 9.826 11.811 6.52 21.354 15.496 28.818 27.354 5.67 8.646 14.504 30.472 26.834 65.338 1.701 5.008 4.347 12 7.843 21.496L16.16 518.5h94.676l108-300.18c13.842-38.125 26.504-78.14 37.51-120.14 10.158 40.346 22.158 79.652 36.142 118.16l110.83 302.17h87.873L294-8.82c-21.165-56.976-37.653-96.188-49.322-117.68-15.685-28.96-33.496-50.172-53.668-63.637-20.315-13.512-44.362-20.362-72.33-20.362-17.008 0-35.858 3.685-56.692 10.866z"/></glyph><glyph id="glyph223" horiz-adv-x="556" unicode="u"><path id="path225" d="M405.82 0v76.156c-40.488-58.676-95.337-87.825-164.64-87.825-30.519 0-59.196 5.858-85.699 17.48-26.456 11.669-46.157 26.504-58.96 44.172-13.039 17.858-22.015 39.495-27.165 65.196-3.543 17.338-5.338 44.645-5.338 82.156v321.16h87.825v-287.48c0-46.015 1.842-76.865 5.338-92.833 5.67-23.196 17.338-41.196 35.149-54.519 18-13.181 40.157-19.653 66.519-19.653 26.314 0 50.976 6.661 74.172 20.173 23.149 13.464 39.495 31.984 48.991 55.133 9.638 23.338 14.504 57.164 14.504 101.34v277.84h87.825V-.004h-78.518z"/></glyph><glyph id="glyph227" horiz-adv-x="333" unicode="r"><path id="path229" d="M65.007 0v518.5h78.991v-78.518c20.173 36.708 38.834 61.038 55.983 72.708 17.008 11.669 35.858 17.669 56.361 17.669 29.669 0 59.668-9.543 90.329-28.346l-30.33-81.684c-21.354 12.85-42.85 19.181-64.345 19.181-19.322 0-36.519-5.858-51.826-17.338-15.354-11.669-26.173-27.685-32.692-48.188-9.827-31.133-14.645-65.29-14.645-102.47V.004H65.008z"/></glyph><glyph id="glyph231" horiz-adv-x="277" unicode="І"><path id="path233" d="M93.331 0v715.82h94.678V0H93.331z"/></glyph><glyph id="glyph235" horiz-adv-x="722" unicode="Н"><path id="path237" d="M80.008 0v715.82h94.82V421.83h372.02v293.99h94.82V0h-94.82v337.32h-372.02V0h-94.82z"/></glyph><glyph id="glyph239" horiz-adv-x="541" unicode="Г"><path id="path241" d="M78.662 715.82h462.83v-84.508h-368.15V-.008H78.664v715.82z"/></glyph><glyph id="glyph243" horiz-adv-x="656" unicode="Л"><path id="path245" d="M129.33 715.82h448.34V0h-94.82v631.32h-258.7V262.67c0-74.835-3.473-129.65-10.488-164.52-6.98-34.831-21.827-61.973-44.15-81.32-22.5-19.347-51.024-28.984-85.501-28.984-20.835 0-45.851 3.827-75.19 11.658l16.016 84.012c15.662-6.52 28.984-9.85 40.146-9.85 21.508 0 37.524 8.185 48.331 24.166 10.701 16.158 16.016 54.178 16.016 113.99v504z"/></glyph><glyph id="glyph247" horiz-adv-x="582" unicode="К"><path id="path249" d="M78.662 715.82h94.678V402.34c43.335 0 73.666 8.327 91.312 25.158 17.504 16.831 40.004 57.012 67.359 120.83 19.807 46.843 36.142 80.008 49.146 99.32 12.827 19.347 31.181 35.681 54.851 48.863 23.811 13.146 49.996 19.807 78.662 19.807 36.496 0 55.666-.319 57.65-.992v-81.993c-3.33 0-9.638.177-19.169.496-10.311.319-16.654.496-18.992.496-30.331 0-52.654-7.335-67.323-22.004-14.988-14.669-32.174-45.992-51.343-93.828-23.988-60.485-44.327-98.646-60.981-114.48-16.689-15.662-36.496-28.347-59.528-37.843 46.17-12.685 91.702-55.347 136.67-127.84L579.164.01h-117.67l-119.66 194.32c-32.811 53.682-60.485 90.532-82.489 110.69-22.181 19.984-50.847 29.977-85.997 29.977V.007H78.67v715.82z"/></glyph><glyph id="glyph251" horiz-adv-x="666" unicode="А"><path id="path253" d="M-1.488 0l275 715.82h101.98L668.492 0h-108L477.01 216.82H177.67L99.186 0H-1.484zm206.51 293.99h242.82l-74.835 198.18c-22.677 60.166-39.685 109.67-50.67 148.5-9.177-45.992-22.004-91.489-38.658-136.84l-78.662-209.84z"/></glyph><glyph id="glyph255" horiz-adv-x="718" unicode="П"><path id="path257" d="M78.166 715.82h563V0H545.85v631.32H172.84V0H78.162v715.82z"/></glyph><glyph id="glyph259" horiz-adv-x="833" unicode="М"><path id="path261" d="M74.162 0v715.82h142.66l169.34-506.84c15.697-47.162 27.177-82.489 34.193-105.98 8.15 26.008 20.835 64.312 38.162 114.84l171.32 497.98h127.49V0h-91.312v599.18L458.025 0h-85.501l-207 609.35V0H74.177z"/></glyph><glyph id="glyph263" horiz-adv-x="656" unicode="Б"><path id="path265" d="M81.497 715.82h464.35v-84.508h-369.53v-220.64h170.86c63.142 0 113.32-5.988 150.66-18.177 37.17-12.012 67.146-34.654 89.505-67.997 22.5-33.343 33.839-72.178 33.839-116.5 0-36.178-8.185-69.839-24.166-101.34-16.193-31.323-40.181-56.977-72.178-76.82C492.982 9.995 438.663.003 361.847.003H81.497v715.82zm94.82-635.32h189.36c51.166 0 89.505 10.488 114.98 31.323 25.689 20.835 38.339 52.016 38.339 93.686 0 29.658-7.335 54.496-22.004 74.304-14.492 19.843-34.973 33.024-60.981 39.508-26.008 6.52-70.512 9.85-133.34 9.85h-126.36V80.501z"/></glyph><glyph id="glyph267" horiz-adv-x="610" unicode="Т"><path id="path269" d="M259.34 0v631.32H23.5v84.508h567.32V631.32h-236.8V0h-94.678z"/></glyph><glyph id="glyph271" horiz-adv-x="760" unicode="Ф"><path id="path273" d="M336.01 629.83v91.843h88.831V629.83c91.17-4.819 162.99-32.315 215.82-82.17 52.654-49.996 78.981-112.15 78.981-186.31 0-72.674-25.477-134.36-76.642-185.03-51.024-50.811-123.84-78.804-218.16-83.977V.004h-88.831v92.339c-84.686 3.154-155.2 28.984-211.5 77.316-56.339 48.331-84.508 112.18-84.508 191.69 0 79.654 28.17 143.47 84.331 191.3 56.162 48.012 126.67 73.666 211.68 77.174zm88.831-81.001v-374.99c61.158 3.012 109.31 20.658 144.5 53.15 35.15 32.67 52.654 77.351 52.654 134.36 0 55.985-17.15 100.31-51.662 132.98-34.512 32.847-82.985 50.847-145.49 54.496zm-88.831-.496c-59.032-2.658-106.69-19.984-143.19-52.158-36.496-32.351-54.674-77.174-54.674-134.82 0-57.012 18-101.69 54-134.36 36-32.492 83.835-49.996 143.86-52.654v374z"/></glyph><glyph id="glyph275" horiz-adv-x="722" unicode="С"><path id="path277" d="M587.84 251.01l94.82-24.024c-19.843-77.67-55.666-136.98-107.15-177.98-51.662-40.855-114.66-61.158-189.36-61.158-77.138 0-139.82 15.662-188.15 46.985-48.331 31.5-85.182 76.997-110.34 136.49-25.158 59.67-37.843 123.66-37.843 192.01 0 74.516 14.173 139.5 42.697 194.99 28.488 55.524 68.989 97.69 121.64 126.5 52.512 28.843 110.34 43.193 173.52 43.193 71.646 0 131.81-18.177 180.68-54.674 48.827-36.496 82.808-87.662 101.98-153.85l-93.154-22.004c-16.689 52.193-40.678 90.001-72.355 113.85-31.5 23.847-71.15 35.681-119.16 35.681-54.993 0-100.81-13.181-137.84-39.508-36.992-26.504-63-61.831-77.812-106.34-15.024-44.327-22.5-90.178-22.5-137.34 0-60.981 8.823-113.99 26.504-159.49 17.823-45.355 45.319-79.335 82.808-101.84 37.524-22.5 78.024-33.662 121.68-33.662 53.008 0 97.832 15.307 134.68 45.815 36.815 30.685 61.654 76.182 74.658 136.35z"/></glyph><glyph id="glyph279" horiz-adv-x="722" unicode="Я"><path id="path281" d="M643.5 0v715.82H326.16c-63.816 0-112.32-6.484-145.49-19.311-33.166-12.862-59.67-35.504-79.69-67.997-19.807-32.67-29.658-68.67-29.658-108 0-50.847 16.335-93.509 49.323-128.34 32.847-34.831 83.694-57.012 152.36-66.508-25.193-12.012-44.185-23.847-57.189-35.681-27.673-25.335-53.823-57.154-78.662-95.138L12.644-.005h119.2l94.642 149c27.673 42.839 50.492 75.827 68.493 98.505 17.858 22.819 33.839 38.835 48.012 47.835 14.173 9.177 28.488 15.484 43.158 19.169 10.843 2.161 28.347 3.33 52.831 3.33h109.84V-.005h94.678zm-94.678 399.83h-203.67c-43.158 0-77.174 4.5-101.48 13.5-24.52 9-43.016 23.351-55.666 43.016-12.685 19.666-18.992 40.996-18.992 64.17 0 33.803 12.154 61.654 36.815 83.481 24.484 21.827 63.319 32.67 116.5 32.67h226.49v-236.84z"/></glyph><glyph id="glyph283" horiz-adv-x="666" unicode="Ч"><path id="path285" d="M587.84 0h-94.678v288.5c-85.005-31.5-159.34-47.339-223.16-47.339-49.819 0-93.686 11.658-131.85 35.008-37.985 23.173-63.497 52.831-76.323 88.512-13.004 35.823-19.347 82.808-19.347 140.67v210.47h94.678v-201.65c0-78.166 14.35-129.51 42.839-153.99 28.347-24.697 62.682-37.028 102.65-37.028 66.863 0 137.02 14.847 210.51 44.504v348.17h94.678V.007z"/></glyph><glyph id="glyph287" horiz-adv-x="635" unicode="У"><path id="path289" d="M4.819 715.82h95.847l233.33-438.49 204.17 438.49h94.182l-268.51-556.66C330.176 89.498 302.68 44 281.348 22.49 259.842.982 229.015-9.861 189.01-9.861c-24.484 0-54.32 5.847-89.824 17.185v81.001c25.335-14.669 52.158-22.004 80.505-22.004 23.138 0 42.98 7.512 59.812 22.323 16.83 14.847 35.185 48.508 55.489 101.34L4.832 715.814z"/></glyph><glyph id="glyph291" horiz-adv-x="722" unicode="Č"><path id="path293" d="M587.85 251l94.817-24c-19.842-77.668-55.653-137.01-107.15-178.01-51.684-40.818-114.71-61.18-189.35-61.18-77.148 0-139.84 15.685-188.17 47.007-48.33 31.511-85.18 77.007-110.31 136.53-25.181 59.668-37.842 123.64-37.842 192 0 74.503 14.173 139.46 42.661 194.97 28.488 55.511 68.975 97.699 121.65 126.52 52.535 28.818 110.36 43.18 173.52 43.18 71.668 0 131.81-18.189 180.66-54.708 48.85-36.472 82.818-87.636 102-153.82l-93.164-21.968c-16.677 52.157-40.676 89.999-72.33 113.81C473.331 635.189 433.646 647 385.642 647c-54.991 0-100.82-13.181-137.81-39.495-36.992-26.504-63.023-61.842-77.857-106.34-14.976-44.314-22.488-90.14-22.488-137.34 0-60.991 8.835-114 26.504-159.49 17.858-45.306 45.354-79.322 82.818-101.81 37.511-22.535 77.999-33.684 121.7-33.684 53.007 0 97.841 15.354 134.64 45.826 36.85 30.661 61.653 76.156 74.692 136.34zM386.36 810.5l53.621 83.007h99.684l-109.84-136.68H336l-105.49 136.68h100.68l55.18-83.007z"/></glyph><glyph id="glyph295" horiz-adv-x="499" unicode="č"><path id="path297" d="M404.36 190.01l86.314-11.338c-9.354-59.527-33.496-106.16-72.518-139.84-38.834-33.684-86.644-50.503-143.34-50.503-70.818 0-127.98 23.149-170.97 69.495-43.18 46.346-64.818 112.86-64.818 199.51 0 55.983 9.307 105.02 27.826 147.02 18.661 41.999 46.818 73.463 84.802 94.487 37.842 20.976 79.18 31.511 123.68 31.511 56.314 0 102.52-14.362 138.19-42.85 35.81-28.488 58.818-68.834 68.975-121.32l-85.51-13.181c-8.173 34.818-22.488 60.991-43.133 78.66-20.693 17.527-45.684 26.314-75.022 26.314-44.314 0-80.314-15.826-108-47.621-27.685-31.7-41.48-81.873-41.48-150.52 0-69.684 13.323-120.33 40.157-151.98 26.645-31.511 61.511-47.338 104.5-47.338 34.488 0 63.164 10.63 86.314 31.795 23.196 21.165 37.842 53.668 44.031 97.699zM274.02 636.65l53.668 83.007h99.636l-109.79-136.68h-93.872l-105.49 136.68h100.68l55.18-83.007z"/></glyph><glyph id="glyph299" horiz-adv-x="558" unicode="й"><path id="path301" d="M66.012 518.5h87.804V122.99l243.68 395.51h94.678V0h-87.839v392.99L160.655 0H66.013v518.5zm305.15 196.34h59.989c-4.819-40.678-19.666-72.001-44.646-93.65-24.839-21.862-58.004-32.847-99.355-32.847-41.634 0-74.977 10.843-99.816 32.492-25.016 21.685-39.827 53.008-44.682 94.005h60.024c4.5-22.181 13.642-38.658 27.142-49.5 13.5-10.984 31.677-16.335 54.355-16.335 26.504 0 46.311 5.173 59.812 15.839 13.5 10.488 22.677 27.177 27.177 49.996z"/></glyph><glyph id="glyph303" horiz-adv-x="669" unicode="ж"><path id="path305" d="M379.35 518.5V294.49c27.992 0 47.8 5.35 59.138 16.016 11.339 10.843 28.028 41.988 49.855 93.828 20.48 49.182 38.835 80.505 55.17 94.182 15.839 13.323 41.315 19.984 76.146 19.984h32.174v-72.674l-23.847.496c-23.492 0-38.481-3.472-45-10.31-6.803-7.158-17.15-28.525-31.146-63.994-13.181-33.839-25.158-57.189-36.178-70.194-11.162-13.146-28.311-24.98-51.839-35.646 38.162-10.169 75.19-45.355 111.33-105.52L671.815-.002h-96.662l-94.146 160.66c-19.169 32.528-36 53.86-50.351 64.028-14.315 9.992-31.323 14.988-51.308 14.988V.004h-89.859v239.67c-19.488 0-36.319-4.854-50.67-14.847-14.315-9.815-31.146-31.323-50.315-64.17L94.18-.003H-2.518l96.343 160.66c36.355 60.166 73.666 95.351 111.69 105.52-26.008 11.976-44.185 25.158-54.674 39.331-10.346 13.996-26.008 47.835-46.843 101.16-7.157 18-14.847 28.984-22.996 33.343-8.327 4.146-21.012 6.307-37.488 6.307-4.358 0-12.862-.142-26.008-.496v72.674h12.331c33.839 0 57.65-1.984 71.504-5.988 13.819-4.181 26.15-12.685 37.17-26.008 10.807-13.181 24.98-40.5 42.662-82.17 21.508-51.166 37.843-82.17 49.004-93.331 11.339-10.984 31.004-16.512 59.315-16.512v224.01h89.859z"/></glyph><glyph id="glyph307" horiz-adv-x="458" unicode="з"><path id="path309" d="M180.68 234.32v68.847c37.17.319 62.327 1.843 76.004 4.5 13.5 2.516 26.15 10.346 38.304 23.315 12.012 13.004 18 29.339 18 48.863 0 23.811-7.83 42.804-23.634 56.977-15.839 14.173-36.178 21.189-61.335 21.189-49.5 0-84.19-29.162-104-87.343l-83.516 13.677c26.008 97.335 88.831 145.98 188.5 145.98 55.312 0 98.646-15.166 130.15-45.496 31.358-30.154 47.197-66.331 47.197-108.32 0-42.343-20.693-76.004-61.69-101.2 26.185-13.996 45.674-31.819 58.678-53.327 13.004-21.65 19.488-47.339 19.488-76.997 0-46.489-16.831-84.331-50.811-113.32-33.839-28.843-81.178-43.335-142.02-43.335-118.17 0-186.66 52.477-205.66 157.64l82.666 17.504c7.476-33.166 22.642-58.819 45.674-76.997 22.819-18.319 49.146-27.319 78.804-27.319 29.516 0 54.178 8.327 74.02 24.98 19.666 16.831 29.48 38.162 29.48 64.347 0 20.162-6.165 37.666-18.638 52.654-12.366 15.024-25.512 24.343-39.508 28.028-13.996 3.827-39.331 5.634-76.182 5.634-2.835 0-9.673-.142-19.984-.496z"/></glyph><glyph id="glyph311" horiz-adv-x="541" unicode="п"><path id="path313" d="M66.331 518.5h409.33V0H387.68v445.82H154.35V0H66.334v518.5z"/></glyph><glyph id="glyph315" horiz-adv-x="364" unicode="г"><path id="path317" d="M66.331 518.5h298.35v-72.674h-210.33V.006H66.335v518.5z"/></glyph><glyph id="glyph319" horiz-adv-x="556" unicode="е"><path id="path321" d="M420.84 167l90.816-11.162c-14.315-53.186-40.819-94.324-79.477-123.66-38.835-29.162-88.335-43.831-148.5-43.831-75.863 0-136.03 23.315-180.36 69.981-44.504 46.666-66.65 112.18-66.65 196.51 0 87.343 22.5 154.98 67.323 203.18 45 48.154 103.18 72.32 174.83 72.32 69.343 0 126-23.67 169.83-70.831 44.008-47.162 66.012-113.67 66.012-199.17 0-5.315-.177-13.146-.496-23.492h-386.68c3.189-57.012 19.347-100.67 48.33-130.82 29.02-30.366 65.02-45.532 108.36-45.532 32.175 0 59.67 8.504 82.49 25.512 22.819 16.831 40.819 43.831 54.178 81.001zm-288.5 142.16h289.49c-3.827 43.512-14.988 76.359-33.166 98.009-27.992 33.839-64.347 50.847-108.85 50.847-40.323 0-74.304-13.5-101.8-40.5-27.532-27-42.697-63.178-45.674-108.36z"/></glyph><glyph id="glyph323" horiz-adv-x="572" unicode="б"><path id="path325" d="M445.82 732.83l77.67-.815c-3.65-34.866-11.339-59.174-23.315-72.851-11.835-13.677-27.177-22.5-45.851-26.327-18.673-4.004-55.312-5.846-110.16-5.846-72.497 0-122-6.98-148.32-20.976-26.327-14.032-45.355-36.532-56.835-67.182-11.658-30.827-18-70.335-19.347-118.84 22.181 32.847 48.012 57.508 77.67 73.843 29.516 16.512 63 24.662 99.993 24.662 67.997 0 124.34-23.315 169.02-69.981 44.504-46.666 66.827-110.02 66.827-189.68 0-60.662-11.162-110.16-33.662-149-22.5-38.693-49.004-68.67-79.831-89.86-30.685-21.153-72.674-31.641-125.68-31.641-61.477 0-109.49 13.996-143.65 42.166-34.193 28.17-60.343 64.17-78.52 108.14-18.319 44.008-27.319 120.51-27.319 229.5 0 137.02 23.173 229.36 69.485 276.84 46.347 47.516 117.85 71.327 214.2 71.327 59.812 0 93.828 1.027 101.98 2.834 8.185 2.02 13.323 6.662 15.662 13.677zm-4.5-471.65c0 54.142-12.65 98.328-38.339 132.8-25.477 34.512-61.477 51.839-108 51.839-48.473 0-85.997-18.319-112.32-54.638-26.327-36.532-39.65-85.182-39.65-146.02 0-60.343 14.669-106.34 43.831-138.16 28.984-31.996 64.985-47.835 107.65-47.835 43.512 0 79.016 18.319 106.19 55.312 27.142 37.028 40.642 85.855 40.642 146.69z"/></glyph><glyph id="glyph327" horiz-adv-x="531" unicode="в"><path id="path329" d="M66.331 518.5h202.68c49.819 0 86.812-4.146 111.15-12.331 24.166-8.327 45-23.492 62.504-45.674 17.327-22.146 26.15-48.65 26.15-79.654 0-24.662-5.138-46.347-15.484-64.666-10.169-18.354-25.654-33.839-46.17-46.17 24.484-8.185 44.682-23.351 60.839-45.674 16.158-22.323 24.166-48.65 24.166-79.335-3.154-49.146-20.835-85.642-52.654-109.31C407.48 11.839 361.169.005 300.332.005h-234v518.5zm88.016-218.16h93.65c37.488 0 63.178 1.843 77.174 5.847 13.996 3.826 26.504 11.835 37.666 23.67 10.984 11.835 16.512 26.15 16.512 42.662 0 27.319-9.673 46.489-29.02 57.154-19.347 10.843-52.512 16.158-99.32 16.158h-96.662V300.34zm0-228.01h115.65c49.819 0 84.012 5.67 102.51 17.362 18.673 11.48 28.311 31.5 29.339 59.634 0 16.689-5.35 32.032-16.193 46.17-10.665 14.173-24.662 23.173-41.811 26.858-17.362 3.827-45 5.67-83.162 5.67H154.34V72.333z"/></glyph><glyph id="glyph331" horiz-adv-x="687" unicode="м"><path id="path333" d="M68.351 518.5h136.67l136.31-415 151.34 415h126.5V0h-87.839v417.51L378.012 0H299.35L154.36 437.5V0H68.363v518.5z"/></glyph><glyph id="glyph335" horiz-adv-x="552" unicode="н"><path id="path337" d="M66.331 518.5h88.016V302.68h243.64V518.5h87.839V0h-87.839v230h-243.64V0H66.331v518.5z"/></glyph><glyph id="glyph339" horiz-adv-x="583" unicode="л"><path id="path341" d="M108.82 518.5h408.33V0h-87.485v445.82h-232.83V187.51c0-60.166-1.984-100.03-5.847-119.16-3.968-19.169-14.669-36-32.315-50.351C141.17 3.649 115.657-3.509 82.491-3.509c-20.48 0-44.15 1.346-70.83 4.004v73.17h38.692c18.142 0 31.146 1.984 38.977 5.67 7.831 3.826 13.004 9.673 15.662 17.822 2.693 8.185 3.827 34.69 3.827 79.69v341.65z"/></glyph><glyph id="glyph343" horiz-adv-x="583" unicode="д"><path id="path345" d="M135.32 518.5h361.35V72.32h55.985v-219.33h-72.142V0H72.323v-147.01H.003V72.32H46.35c61.831 84.012 91.489 232.69 88.973 446.18zm73.17-72.674c-6.484-168.31-32.492-292.82-78.166-373.5h278.86v373.5h-200.69z"/></glyph><glyph id="glyph347" horiz-adv-x="556" unicode="о"><path id="path349" d="M33.166 259.34c0 95.989 26.681 167.18 80.15 213.34 44.504 38.304 98.859 57.65 163.03 57.65 71.327 0 129.65-23.315 174.83-70.158 45.319-46.666 67.819-111.19 67.819-193.5 0-66.827-9.992-119.34-29.977-157.5-20.02-38.339-49.182-67.997-87.343-89.186-38.339-21.154-80.008-31.642-125.33-31.642-72.497 0-131.17 23.173-176 69.839-44.859 46.489-67.182 113.49-67.182 201.16zm90.32 0c0-66.508 14.528-116.19 43.512-149.17 29.02-33.166 65.516-49.678 109.35-49.678 43.654 0 79.973 16.689 108.99 49.855 28.843 33.166 43.335 83.835 43.335 151.83 0 64.17-14.492 112.82-43.689 145.84-29.162 32.988-65.304 49.5-108.64 49.5-43.831 0-80.327-16.512-109.35-49.359-28.984-32.811-43.512-82.489-43.512-148.82z"/></glyph><glyph id="glyph351" horiz-adv-x="437" unicode="к"><path id="path353" d="M65.516 518.5h87.804V294.49c28.028 0 47.693 5.35 58.855 16.016 11.162 10.843 27.673 41.988 49.5 93.828 17.327 40.996 31.323 67.997 41.988 81.001 10.843 13.004 23.173 21.827 37.17 26.327 13.996 4.677 36.496 6.839 67.323 6.839h17.681v-72.674l-24.52.496c-22.996 0-37.807-3.473-44.327-10.311-6.839-7.158-17.327-28.524-31.323-63.993-13.323-33.84-25.512-57.19-36.674-70.194-10.984-13.146-28.17-24.98-51.166-35.646 37.666-10.17 74.835-45.355 111.33-105.52L445.323-.001h-96.662l-93.828 160.66c-19.169 32.174-36 53.504-50.174 63.674-14.315 10.346-31.5 15.343-51.343 15.343V.006H65.512v518.5z"/></glyph><glyph id="glyph355" horiz-adv-x="556" unicode="а"><path id="path357" d="M404.33 63.993c-32.67-27.673-63.993-47.162-94.005-58.642-30.154-11.339-62.504-17.008-96.981-17.008-57.012 0-100.67 13.819-131.35 41.67-30.508 27.815-45.815 63.497-45.815 106.65 0 25.512 5.67 48.65 17.327 69.662 11.48 21.012 26.646 37.843 45.319 50.492 18.85 12.685 39.827 22.358 63.355 28.843 17.15 4.5 43.158 9 77.989 13.181 71.008 8.504 123.34 18.496 156.83 30.331.354 11.976.496 19.666.496 22.819 0 35.823-8.327 61.158-24.98 75.686-22.358 19.984-55.843 29.835-100.03 29.835-41.315 0-71.823-7.193-91.666-21.685-19.666-14.492-34.158-40.146-43.654-76.997l-85.82 11.835c7.83 36.674 20.658 66.508 38.481 89.009 17.858 22.642 43.831 40.146 77.67 52.335 33.84 12.154 72.993 18.319 117.67 18.319 44.327 0 80.15-5.315 107.82-15.662 27.673-10.488 48.012-23.492 61.158-39.331 13.004-15.839 22.004-35.681 27.354-59.847 2.835-14.988 4.323-41.988 4.323-81.001v-117.14c0-81.851 1.842-133.51 5.67-155.02 3.684-21.65 11.161-42.485 22.18-62.327h-91.843c-9 18.177-14.988 39.508-17.504 63.993zm-7.335 196.34c-31.996-13.146-79.83-24.166-143.5-33.343-36.142-5.138-61.83-10.984-76.642-17.469-15.024-6.52-26.68-16.016-34.689-28.701-8.15-12.472-12.33-26.327-12.33-41.634 0-23.528 9-43.016 26.68-58.678 17.646-15.52 43.654-23.351 77.812-23.351 33.84 0 64.028 7.335 90.355 22.181 26.327 14.847 45.815 35.15 58.146 60.839C392.323 160.02 397 189.323 397 228.016v32.315z"/></glyph></font>
</defs>
</svg>
