<svg xmlns="http://www.w3.org/2000/svg" id="svg3353" version="1.1" viewBox="0 0 2200.305 1560.352"><defs id="defs3355"><style id="style4993" type="text/css">@font-face{font-family:&quot;Gotham Black&quot;;src:url(#FontID0) format(svg)}.str0,.str2,.str3{stroke:#56c4d0;stroke-width:.390945}.str0,.str3{stroke:#ef1c25}.str0{stroke:#fff}.fil3{fill:none}.fil6{fill:#0038b8}.fil4{fill:#56c4d0}.fil1{fill:#ef1c25}.fil0{fill:#fff}</style><style id="style8856" type="text/css">@font-face{font-family:&quot;Paramount Script&quot;;src:url(#FontID0) format(svg)}.fil0,.fil1{fill:#00adff}.fil0{fill-rule:nonzero}</style><style id="style11513" type="text/css">@font-face{font-family:&quot;VTKS Estilosa&quot;;src:url(#FontID0) format(svg)}.str0{stroke:#000;stroke-width:2.08347}.fil3{fill:#000}.fil4{fill:#00f}.fil0{fill:#0cf}.fil1{fill:#93c;fill-rule:nonzero}</style><style id="style20272" type="text/css">.str0,.str2,.str3{stroke:#2d0f31;stroke-width:.390945}.str0,.str2{stroke:#cd111f}.str0{stroke:#fff}.fil1{fill:none}.fil4{fill:#2d0f31}.fil3{fill:#cd111f}.fil0,.fil6{fill:#fff}</style><font id="FontID0" horiz-origin-x="0" horiz-origin-y="0" vert-origin-x="45" horiz-adv-x="795" vert-origin-y="90" vert-adv-y="90" font-weight="400"><font-face id="font-face4965" font-family="Gotham Black"/><glyph id="glyph4971" unicode="D" horiz-adv-x="766"><path id="path4973" d="M62 0h267c251 0 398 150 398 352v2c0 202-145 346-394 346H62V0zm273 529c117 0 194-66.001 194-178v-2c0-113-77.002-177-194-177h-79v357h79z"/></glyph><glyph id="glyph4975" unicode="O" horiz-adv-x="830"><path id="path4977" d="M415-14.001c216 0 378 163 378 364v1.998c0 201-160 362-376 362s-378-163-378-364v-2c0-201 160-362 376-362zm2 175c-107 0-180 88-180 189v1.998c0 101 71 187 178 187s179-87.002 179-189v-2c0-101-71-187-177-187z"/></glyph><glyph id="glyph4979" unicode="I" horiz-adv-x="327"><path id="path4981" d="M67 0h194v700H67V0z"/></glyph><glyph id="glyph4983" unicode="N" horiz-adv-x="785"><path id="path4985" d="M62 0h192v384L554 0h169v700H531V330L243 700H62V0z"/></glyph><glyph id="glyph4987" unicode="B" horiz-adv-x="715"><path id="path4989" d="M62 0h361c167 0 265 73.001 265 193v1.998c0 95.002-54.001 143-139 171 61.999 27 108 75 108 156v2c0 48-17.001 85-45.001 114-41 40-103 62-191 62h-359v-700zm404 482c0-41-34.001-61-93.001-61h-122v123h127c57 0 88-21 88-60v-2zm28-260v-2c0-41-33.001-64.001-93.001-64.001h-150v129h148c64.999 0 94.999-25 94.999-63z"/></glyph><glyph id="glyph4991" horiz-adv-x="276"/></font><font id="FontID0-7" horiz-origin-x="0" horiz-origin-y="0" vert-origin-x="45" horiz-adv-x="711" vert-origin-y="90" vert-adv-y="90" font-weight="400"><font-face id="font-face8818" font-family="Paramount Script"/><glyph id="glyph8824" unicode="n" horiz-adv-x="333"><path id="path8826" d="M259.33 306.17h15.499C298.333 301.997 310 295.999 310 288.506c2.664-4.842 4.003-10 4.003-15.499v-5.84l-74.173-170c-5.329-14.659-7.835-24.33-7.835-29.33v-3.833c0-3.005 3.176-4.83 9.672-5.84 14.33 0 35.84 15 64.5 44.842 4.83 7.835 11.34 14.331 19.502 19.501 4.002-4.842 5.827-9.344 5.827-13.674V101c0-16.168-16.824-35-50.656-56.496-36.51-36.496-70.341-54.672-101.67-54.83h-3.845c-23.491.158-36.496 14.332-39.16 42.993v4.002c9.16 28.333 26.168 70 50.827 125 0 5.499 6.509 19.83 19.5 43.005 9.174 20.158 15 35 17.678 44.83-2.678 9.16-6.51 13.66-11.837 13.66-23.674-3.162-55-35.827-93.674-97.664C106.992 145 84.17 94.173 50.326 13.16 44.499 5.325 38.003 1.492 30.838 1.492H7.334c-1.339 0-2.008.67-2.008 2.008L1.494 1.492H-.501c-2.835 0-5.499.67-7.835 2.008-1.338 0-1.837-.67-1.995-2.008-9.671 1.339-16.168 3.176-19.5 5.84 17.322 52.664 30.996 85.997 40.996 99.66 7.835 17.506 16.995 41.01 27.336 70.34 3.334 0 19.003 31.168 46.995 93.661 8.163 20.84 16.496 31.34 25.341 31.34h23.491c7.166 0 16.168.498 27.336 1.836 7.835-2.506 11.667-5.17 11.667-7.834-6.496-16.51-9.829-28.333-9.829-35.171 40.827 26.168 64.83 39.16 72.336 39.16 10.997 3.845 18.832 5.84 23.491 5.84z"/></glyph><glyph id="glyph8828" unicode="p" horiz-adv-x="208"><path id="path8830" d="M129.83 249.5c-5.827-11.995-14.829-28.163-26.824-48.333-3.504-7.165-7.336-15-11.168-23.504-20.84-37.336-33.176-67.664-37.165-90.669-.67-.328-3.333-13.491-8.333-39.16 0-13.333 6.168-20 18.66-20 16.497 0 43.505 38.661 80.998 116.17 24.672 51.168 37.165 88.333 37.165 111.32 0 14.672-6.168 22.008-18.661 22.008h-1.838c-9.16 0-20.158-9.33-32.835-27.835zM21 12.16C-2.832-48.339-32.333-125-67.832-217.84c-5.827-7.664-12.336-11.667-19.501-11.667h-23.504c-1.325 0-1.995.67-1.995 1.995l-3.832-1.995h-1.995c-2.834 0-5.511.67-7.834 1.995-1.339 0-2.008-.656-2.008-1.995-9.659 1.339-16.168 3.333-19.501 5.84 17.336 52.822 61.339 168.66 131.84 347.66C-8.327 141.657.846 164.99 11.174 194.32c3.333 0 19.003 31.339 46.995 93.832 8.005 20.84 16.509 31.168 25.34 31.168h23.492c7.178 0 16.168.67 27.336 2.008 7.835-2.677 11.667-5.17 11.667-7.835-3.832-10.17-6.667-18.176-8.333-24.5 13.674 3.66 27.664 5.498 42.008 5.498 29.33-5.328 43.99-11.496 43.99-18.661 21.168-52.008 7.178-116.84-41.995-194.34C136.346 31.99 96.844 7.33 63.014 7.33H39.51c-6.168 0-12.336 1.667-18.504 4.83z"/></glyph><glyph id="glyph8832" unicode="g" horiz-adv-x="307"><path id="path8834" d="M80 46.837c0-15.499 7.165-23.333 21.496-23.333 19.344 0 50.499 44.829 93.832 134.66 28.674 59.003 43.005 102.01 43.005 129 0 16.837-7.165 25.341-21.496 25.341h-2.008c-20.158 0-47.493-38.333-81.995-115.17-24.173-43.333-38.504-78.504-43.005-105.5-.997-.341-4.16-15.341-9.83-45zm61.168-37.008c-14.672-6.496-28.504-9.83-41.496-9.83H72.336C56.667 0 40.328 9.83 23.504 29.332 7.835 48.83 0 70.998 0 95.67v11.837c22.835 63.99 49.501 114.83 80 152.32 2.664 0 7.835 5.17 15.669 15.499 44.003 37.835 90.171 56.667 138.66 56.667 19.501-3.163 33.333-6.995 41.509-11.155 6.496 5.498 15.328 8.333 26.496 8.333h42.835c1.995 0 4.003-2.008 5.827-5.84v-1.995c-10.997-27.677-22.664-55.84-35-84.5l2.336-.5c-3.504-4.842-6.496-9.671-8.832-14.172a293.942 293.942 0 00-4.83-10.67c-1.338-4.658-2.008-8.66-2.008-12.322 0-6.838-8.49-24.173-25.827-52.178-30-70.328-47.507-114.66-52.664-132.82-13.333-38.176-29.842-68.346-49.344-90.84-23.832-28.661-51.824-51.667-83.99-69.331-1.666 0-5.17-2.008-10.84-5.84-22.336-14.331-57.835-24.501-106.34-30.328l-6.325.997h-9.843c-3.162 0-6.496-.328-9.829-.997-17.493 1.994-26.326 3.661-26.326 4.829l-2.336-1.325c-27.008 6.154-47.008 13.49-59.672 21.995-5.17 2.493-14.5 9.829-27.835 21.837-12.336 18.66-19.16 33.66-20.499 45v7.322c0 32.835 13.674 53.333 40.997 61.51 2.677 0 4.003.498 4.003 1.495 18.163 0 29.173-9.33 32.664-27.835v-9.829c0-9.33-5.656-21.667-17.165-36.667 0-1.496-.998-5.67-3.334-12.165 2.336-12.664 7.507-24.331 15.67-35.171 15.84-18.504 41.338-27.835 76.167-27.835 29.331 0 54.331 8.163 75.171 24.501 22.835 12.336 45 36.168 66.824 71.339 6.168 8.333 19.344 35.997 39.173 82.992z"/></glyph><glyph id="glyph8836" unicode="d" horiz-adv-x="292"><path id="path8838" d="M48.333 46.837c0-15.499 7.165-23.333 21.496-23.333 19.173 0 50.499 44.829 93.674 134.66 28.661 59.003 42.992 102.01 42.992 129 0 16.837-7.165 25.341-21.496 25.341h-1.837c-20.158 0-47.664-38.333-82.165-115.17-24.003-43.333-38.333-78.504-42.835-105.5-.998-.341-4.331-15.341-9.83-45zm91.339-20C113.662 9.002 89.672 0 67.835 0H40.499C24.83 0 8.662 9.83-8.333 29.331-24.002 48.832-31.666 70.998-31.666 95.67v11.837c22.664 63.99 49.331 114.83 80 152.32 2.664 0 7.835 5.17 15.669 15.499 44.003 37.835 90.171 56.667 138.66 56.667 19.501-3.163 33.333-6.995 41.509-11.155 25.328 57.664 56.667 128.33 93.661 212.32l9.83 2.008h44.841c9.83 0 15-2.008 15.656-5.84v-1.995c0-4.83-45.656-113.68-137.16-326.17v-1.995c0-6.168-6.994-20.84-20.997-43.845-7.165-15-15.827-32.493-25.827-52.323 0-2.165-4.002-14.003-11.837-35.17V65.99c0-12.493 5.329-19.659 15.67-21.496C244.674 50.321 259.004 64.665 271 87.33l27.336 31.326h1.995v-1.995c1.339-20.827 2.008-33.163 2.008-36.995-39.5-45.669-60.34-68.504-62.507-68.504C221.5 3.156 202.667-2.172 183.165-4.338c-20.158 0-34.659 10.328-43.49 31.168z"/></glyph><glyph id="glyph8840" unicode="a" horiz-adv-x="317"><path id="path8842" d="M259.83 318.33c44.173-3.832 66.339-10.997 66.339-21.496-6.496-19.173-31.837-78.333-76.168-177.66L236.34 81.996V66.34c4.501-7.677 10.499-11.667 17.493-11.667h2.008c11.496 4.83 31.667 21.824 60.499 50.827l1.995-4.003V84.004c0-7.165-16.168-23.504-48.832-48.832-37.336-22.165-59.501-33.176-66.34-33.176v1.838l-3.989-1.838h-5.84c-30 0-44.829 18.176-44.829 54.672h-4.002C102.836 18.833 65.172.001 31.343.001h-7.835C9.505.001-3.5 7.836-15.665 23.505c-3.832 10-5.827 17.165-5.827 21.496v3.832c0 56.667 31.995 117.84 95.67 183.68 34.487 29.488 65.157 49.66 91.823 60.5 41.667 16.823 73.005 25.327 93.832 25.327zM72.34 87.83c0-1.168.67-3.163 1.837-5.84-2.506-4.16-3.845-8.163-3.845-11.667 0-7.165 4.501-13.66 13.674-19.488 42.336 0 86.496 55.997 132.84 167.99 22.165 37.336 33.163 62.165 33.163 74.173-2.664 1.326-4.501 1.995-5.827 1.995-38.845-7.835-75.84-35.827-111.34-84.003-40.328-59.003-60.499-100-60.499-123.16z"/></glyph><glyph id="glyph8844" unicode="r" horiz-adv-x="255"><path id="path8846" d="M263.66 314.5c11.667-3.333 17.677-9.173 17.677-17.664 0-3.832-9.842-25.341-29.344-64.331v-7.835c0-6.509 2.507-10.499 7.835-11.837 5.17 1.339 9.672 3.334 13.674 5.998h5.826c2.008 0 3.832-1.995 5.84-5.998v-3.832c-.997-14.33-15.997-23.504-45-27.336 0-3.661-11.667-6.168-35.17-7.834-19.16 0-30.172 13.674-33.164 40.997-14.672 0-34.173-28.661-58.504-85.997-9.16-9.33-19.5-32.165-31.339-68.333-13.66-40.328-27.323-60.5-40.997-60.5H-9.833c-3.175 0-5.17 2.665-5.84 7.835 0 6.497 6.497 26.667 19.501 60.5 0 8.162 7.835 27.663 23.504 58.66 52.165 113.84 81.326 171.84 87.835 173.84h58.661c2.008 0 3.832-2.008 5.84-5.84-5.17-16.995-7.834-27.493-7.834-31.339v-5.826h4.002c29.83 22.835 48.163 37.165 54.66 43.005 14.671 8.99 25.668 13.66 33.162 13.66z"/></glyph><glyph id="glyph8848" unicode="P" horiz-adv-x="910"><path id="path8850" d="M593.33 704.67c5.17-1.339 9.672-2.008 13.661-2.008 4.173 0 7.507.67 9.672 2.008 63.832 0 132.16-13.176 205.17-39.173.67-2.835 10.997-7.493 31.168-13.661 0-1.339 18.832-14.331 56.667-39.003 37.493-32.835 62.835-63.504 76.168-91.837 6.824-14.659 12.664-40 17.664-76.168 0-29.331-11.168-62.493-33.333-99.659-42.008-46.837-74.501-72.835-97.664-78.005-64.003-34.003-127.84-50.827-191.34-50.827v1.995c-10.171 0-21.837-24.83-35.171-74.331-21.496-61.168-48.163-110-80-146.51C527.829-48.664 483-85.842 431.162-113.83c-3.005 0-8.832-3.163-17.664-9.672-35.997-23.163-93.333-39.501-171.84-48.832l-9.672 2.008H216.33a62.89 62.89 0 01-15.669-2.008c-28.674 3.163-43.005 5.84-43.005 7.834l-3.832-1.994c-43.661 9.83-75.499 21.496-95.669 35.158-8.832 3.832-23.832 15.669-45 35.17-19.829 30-30.827 54.004-33.163 72.166v11.837c0 53.005 22.165 86.168 66.339 99.5 3.99 0 5.997.67 5.997 1.995 29.501 0 47.165-15 52.664-44.829V28.835c0-15-9.16-34.5-27.336-58.66 0-2.507-1.994-9.003-5.826-19.502 3.832-20.84 12.336-39.672 25.328-56.667 25.669-29.842 66.667-44.842 123-44.842 47.336 0 87.664 13.005 121.17 39.003C377.824-91.99 413.493-53.5 448.648 3.507c20.84 28.163 51.509 99.16 91.837 212.84 37.507 88.491 75.17 159.5 113.33 212.84 58.005 71.667 106.67 107.49 146.5 107.49l2.007-4.002c-36.496-55.328-54.829-91.168-54.829-107.34-5.17 0-14.842-22.822-29.173-68.333-24.829-61.824-37.165-100.33-37.165-115.33h1.995c2.507-1.339 4.502-1.837 5.84-1.837 31.496 0 70 18.176 115.17 54.672 40.997 39.672 65.158 77.336 72.323 113.16 3.176 0 7.835 19.003 13.674 56.667 0 83.674-33.176 143.5-99.672 179.67-49.5 30-107.34 45-173.83 45-101.84 0-202.16-35.84-300.67-107.51-42.992-37.992-71.667-68.661-85.997-91.667-29.003-47.664-46.496-88.661-52.664-123.16-1.666-10-3.674-17.835-5.997-23.333l1.995-4.003c-2.664-11.667-3.832-22.835-3.832-33.163 0-1.339.669-3.333 1.837-5.84l-1.837-9.83c0-44.16 20.827-80 62.493-107.34 22.336-10.498 38.674-15.655 48.845-15.655h15.499c38.49 0 68.333 15.656 89.829 46.824 4.002 6.509 5.997 11.667 5.997 15.669v1.995c0 9.343-1.325 23.674-4.003 42.835 3.006 23.504 13.333 35.17 31.34 35.17 0 1.34 1.837 1.995 5.826 1.995h11.667c23.504-7.165 35.171-15.656 35.171-25.328 3.005 0 4.83-5.826 5.84-17.664v-1.837c0-34.16-21.509-64.829-64.5-91.837-41.668-19.488-76.668-29.331-105.34-29.331l-11.825 2.008c-1.168 0-3.176-.67-5.84-2.008-38.333 3.832-69.003 10.997-91.837 21.509-81.995 44.331-122.99 106.16-122.99 185.5 5.827 45.328 16.326 81.168 31.326 107.49 12.336 21.168 33.176 46.496 62.507 76.168 35.5 32.165 70 58.163 103.5 78.163 36.667 21.339 84.331 41.509 142.49 60.499 18.333 9.003 70.341 18.176 156.34 27.336 9.659 0 16.824.67 21.496 2.008z"/></glyph><glyph id="glyph8852" unicode="o" horiz-adv-x="316"><path id="path8854" d="M234.33 332c33.832-5.827 50.84-12.992 50.84-21.496 9.16 0 17.493-24.003 25.328-72.165l7.835-1.995c19.5 3.832 37.165 12.992 52.835 27.323 9.002 0 13.66-4.488 13.66-13.66 0-17.166-14.33-27.665-42.991-31.169-25.997-3.333-39.173-9.83-39.173-19.659 0-11.01-21.995-48.845-66.326-113.18C184.173 28.663 138.66.002 99.668.002H72.332c-15.67 0-32.008 9.83-48.832 29.331C7.83 48.834-.004 71-.004 95.673v11.836c22.835 63.99 49.5 114.83 80 152.32 2.664 0 7.834 5.17 15.669 15.5 44.003 37.834 90.17 56.666 138.66 56.666zM80 46.84c0-15.499 7.165-23.333 21.496-23.333 19.344 0 50.499 44.829 93.832 134.66 28.674 59.003 43.005 102.01 43.005 129 0 16.837-7.165 25.341-21.496 25.341h-2.008c-20.158 0-47.493-38.333-81.995-115.17-24.173-43.333-38.504-78.504-43.005-105.5-.997-.341-4.16-15.341-9.83-45z"/></glyph></font><font id="FontID0-76" horiz-origin-x="0" horiz-origin-y="0" vert-origin-x="45" horiz-adv-x="659" vert-origin-y="90" vert-adv-y="90" font-weight="400"><font-face id="font-face11463" font-family="VTKS Estilosa"/><glyph id="glyph11469" unicode="U" horiz-adv-x="663"><path id="path11471" d="M118.83 670H232l4.002-4L234 363.5c0-38.501 2.667-86 7.833-142.5 37.668 42.833 71.667 64.333 101.5 64.333h15.668c25.998-5.833 39-18.168 39-37v-15.667C388.666 194.833 373 176 351.166 176c-15.666 0-23.332 17.665-23.332 52.665l1.833 2h9.834L362.833 219h2c3.334 0 10.5 5.166 21.502 15.666-7.5 26-19.833 39-37.167 39h-5.835c-30.498 0-55.332-26.667-74.166-80.001l-2-17.665c0-31.5 15-54.333 45-68.334 18.5-7.833 38-11.667 58.5-11.667h9.833c69 0 115.17 27.999 138.67 84 14.334 41.667 21.501 93.666 21.501 156.16l-9.834 255.67c1.002 52.165 3.666 78.165 7.833 78.165H652c2.5 0 3.834-2.001 3.834-6l-1.833-78.165c2.5-63.501 3.834-150 3.834-259.67 0-148.17-39-244.5-117.17-289-44-24.834-92.166-37.167-144.5-37.167h-25.5c-97.332 0-170.83 40.332-220.67 121.17-24.666 48.498-36.999 95.334-36.999 140.67l1.998 19.5v11.667c0 3.831-7.166 5.832-21.498 5.832H79.828c-30-5.166-45-19.5-45-43h-2C17.33 266.999 9.496 278.666 9.496 290.999v15.666c5.832 41.667 25.332 62.499 58.5 62.499-7.833 10.5-11.667 22.167-11.667 35.168v9.831c0 13.668 6.498 25.335 19.5 35.168h1.998c5.835-7.833 13.668-24.834 23.334-50.835l9.834-5.832 4 103.5-2 158.17c1.333 10.5 3.334 15.666 5.833 15.666z"/></glyph><glyph id="glyph11473" unicode="A" horiz-adv-x="659"><path id="path11475" d="M404.33 658c7.833-10.665 41.667-98.001 101.5-261.67L654.33 2l-2-2h-121c-4.335 0-14.002 24-29.335 72.167l-48.834 126.83-37.165-3.834-87.834 9.834c-37.833 0-61.833-13.665-72.333-40.833-5.168-17.334-7.833-30.165-7.833-39 0-37.665 15-56.499 45-56.499 18.165 4 27.333 11.667 27.333 23.334s-7.167 17.5-21.5 17.5c-3.835.998-7.168 5.666-9.835 13.667 4.668 15.666 12.501 23.332 23.502 23.332h7.833c13.998 0 25-6.999 33.165-21.333V109.5c-9.498-35-31.5-52.5-66.333-52.5-35.166 0-52.833 26.667-52.833 79.833 0 13.167 3.333 34 9.834 62.166-17.334 0-34.167-35.166-50.835-105.33l-39-93.666H38.997l-1.833 2.001h-2l70.334 197-2 2-19.5 3.835c-26.668 0-42.334-13.002-46.834-39v-5.835h-3.999c-15.668 10.668-23.334 25.668-23.334 44.835v7.833c4.5 40.5 24.666 60.666 60.498 60.666-9.165 10.5-13.665 22.833-13.665 37.167 0 20.832 7.167 35.832 21.501 44.832h3.832c3 0 4.833-7.167 5.834-21.333 12.498-30 28.665-45 48.834-45 49.498 118.5 95.832 240.83 138.67 367l1.999 2.001h127zm-66.501-140.5c-10.332-40.335-32.499-104.17-66.333-191.33l-9.834-37.167h160.17l-81.999 228.5h-2z"/></glyph><glyph id="glyph11477" unicode="O" horiz-adv-x="766"><path id="path11479" d="M409.5 680h39c108.33 0 195-45.666 259.83-136.83 35.166-57.832 52.665-119.17 52.665-183.67v-31.167c0-98.332-39-184.33-117.16-258C581 23.5 513.335.001 440.665.001H415.33c-171.67 0-276.33 93.834-314.5 281.33H89.163l-1.998 1.998c-35.168-4.167-52.668-19.833-52.668-46.833h-4c-14.334 11.334-21.5 24.333-21.5 39v13.668c5.832 41.667 25.5 62.5 58.667 62.5-9.167 10.832-13.668 23.834-13.668 39.167 4.5 27.333 13.668 40.998 27.333 40.998l13.668-46.833c1.666 0 8.167 22.167 19.5 66.333 36.498 98.001 90.498 163.83 162.16 197.33 49.833 20.832 94 31.332 132.83 31.332zM294.67 453.17c0-46.165 29.334-72.832 87.834-79.998 16.665 0 34.833 5.166 54.834 15.666-2.334 9.333-9.5 22.5-21.501 39v7.833c0 22.833 14.832 35.835 44.832 39 46.833-7.5 70.335-28.332 70.335-62.499 0-36.333-33.333-59.835-99.834-70.167 1-4 6.333-5.835 15.666-5.835h9.834c17.334 0 45.333 12.335 84.168 37.002l21.498 5.833h3.834c8.166 0 17.166-1.833 27.333-5.833v-5.834c0-32.5-30-48.832-89.832-48.832h-2.001c-41.499 0-94.332 15.666-158.5 46.833-54.834 14.332-82.167 40.998-82.167 79.998l8 56.667c-31.166-42.333-46.835-94.998-46.835-158.17V320.5c0-42.333 9.668-78.666 29.334-109.33 6.5 17.667 33.168 35.334 79.833 52.998 21.5 5.168 39 7.835 52.668 7.835h15.666c30 0 45-8.501 45-25.5v-3.834l-2.001-13.668h-7.833l-58.665 29.334h-9.666v-2c20.499 0 32.832-15 36.999-45.165-5.167-28.833-16.833-43.167-35.001-43.167-19.665 0-29.5 8.499-29.5 25.332 0 9.833 2.001 21.5 5.833 35.168l-27.333 5.832c-34.998-4.167-52.5-19.833-52.5-46.833v-2c0-22.666 28.002-47.333 84-73.999 26.334-11.667 56.334-17.502 89.835-17.502 70.165 0 125.5 36.501 166 109.34 20.832 44.166 31.167 89.166 31.167 134.67 0 99.333-37.002 173.5-110.84 222.5-31.665 15.666-62.166 23.5-91.833 23.5-55.665 0-99.333-31.166-130.83-93.667l-7.833-37.167z"/></glyph><glyph id="glyph11481" unicode="W" horiz-adv-x="913"><path id="path11483" d="M25.833 656l2 2h119.17c4.168 0 12-26.666 23.335-80 48.832 23.334 85.332 35.168 109.5 35.168 29.499 0 45.832-17.667 48.832-52.833 0-29.502-15.666-51-46.998-64.335h-5.835c-18.832 0-29.832 12.333-33.165 36.999 0 14.334 9.166 22.836 27.333 25.5 7.5-14.332 13.332-21.498 17.667-21.498h1.833c17.001 2.499 25.5 10.998 25.5 25.332-7.833 24.666-21.5 37.167-41 37.167h-4c-35.499 0-64.167-24.165-86-72.333 44.333-163.66 73.001-280.17 86-349.5h2l140.66 480.33h113.17c4 0 14.333-37.167 31.333-111.33l11.667-35.166h2c45.166 23.499 77.833 35.166 97.666 35.166h13.668c28.665-6.168 42.999-20.5 42.999-42.834v-6C718 452.335 701 429.5 674.336 429.5c-16.335 0-26.667 11.166-31.335 33.333v1.833c0 11.667 5.334 20.832 15.666 27.333h4.001c8.332 0 14.332-5.835 17.5-17.5l7.832-2h2.001c15.498 1.332 23.334 7.833 23.334 19.5-5.501 28.665-19.835 43-43.002 43H666.5c-32.499 0-61.165-24.667-85.998-74.167 23.5-83.334 46.998-175.83 70.332-277.33h2.001c67.665 243.83 113.33 402 136.66 474.5h115.34l1.833-2h2.001l-203.17-656h-113.17c-3.333 0-18.999 54.665-46.998 164-24.668 81.497-50.001 182.33-76.167 302.83h-3.834L324.66.002H211.49c-3.666 0-21.168 60.5-52.833 181.5l-33.168 109.5c-50.832-4-76.167-15.667-76.167-35.167-1.332-17-3.333-25.5-5.832-25.5-22.167 11.166-33.168 28.665-33.168 52.833v9.667c5.168 37.833 20.168 56.667 44.835 56.667v2c-15.666 5.833-23.5 20.832-23.5 44.832 3.334 23.5 7.834 35.166 13.666 35.166 8.499-8.499 18.333-22.167 29.334-40.998 8.832-6.5 15.999-9.834 21.5-9.834 0 19.332-23.333 111-70.334 275.33z"/></glyph><glyph id="glyph11485" unicode="C" horiz-adv-x="666"><path id="path11487" d="M464.67 680h35.166c54.165 0 107.5-11.832 159.83-35.332v-1.833l-27.333-88.167-5.835-1.833-19.5 7.665.168-1.833c3.832-21.168 5.832-40.167 5.832-56.667v-7.833c0-31.332-12.999-52.167-39-62.499l-15.666-2c-45.5 6.5-68.334 22.832-68.334 48.833v5.833c0 18.666 9.834 31.002 29.334 37.167h7.834c19.5-1.666 29.166-11.334 29.166-29.334 0-6.499-9-10.332-27.333-11.665l-1.834-9.834v-7.834c2.167-14.168 10.668-21.333 25.332-21.333h7.836c24.666 5.833 37.165 24 37.165 54.666v13.665c-6.666 45.501-23.5 68.334-50.832 68.334l-64.5 5.833c-111 0-189-44.832-233.67-134.66-14.334-33.501-21.498-68.001-21.498-103.5v-21.501c0-89.667 44.332-156.67 132.83-201 39.333-16.833 81.669-25.332 127-25.332 34.5 0 82.665 10.5 144.5 31.332 10.002-19.332 19.167-50.667 27.333-94-57-23.501-113-35.333-168-35.333h-39c-109.83 0-204.17 40.332-283.16 121.17-43.002 56.667-64.5 116.5-64.5 179.83v3.834l-13.668 2h-4c-28.001 0-44.333-13.001-48.833-39.167v-5.833h-2.001c-16.833 10.833-25.332 24.498-25.332 40.998v11.835c4.167 40.332 23.667 60.498 58.5 60.498h2C61.5 386.005 57 399.671 57 416.171c0 21.501 8.499 35.835 25.5 43l15.666-46.834L110 402.506c4.833 48.832 22.998 95.166 54.498 138.83 44 50.667 88.833 84.666 134.5 101.5C355.83 667.668 411.159 680 464.669 680z"/></glyph><glyph id="glyph11489" unicode="N" horiz-adv-x="664"><path id="path11491" d="M115 662h107c42.999-47.499 88.665-110.66 137-189.5l58.665-74.166 27.333-3.834h2c34.834 0 59.5 13 74.167 39l3.999 21.501c-3.666 22.165-12.832 33.165-27.333 33.165-13.167-1.665-19.665-4.167-19.665-7.833l1.998-33.168c-2.664 0-3.831-1.998-3.831-5.832l-2-2.001h-4c-24.668 0-37.002 8.501-37.002 25.5V478.5c0 16.5 13.668 27 41 31.167 41.668-6.5 62.5-22.833 62.5-48.834v-17.5c0-32-32.5-57.332-97.665-76.166v-2c46.833-75.166 84-132.5 111.83-171.83l-.165 2c-3.834 63.333-5.835 124-5.835 181.5v281.17l3.834 4h105.33l3.834-3.832V6.005l-2.001-2.001V2.005l-1.998 1.999h-7.834l-68.334-4h-11.835c-23.665 0-58.998 41.668-105.5 125-69.168 94.999-148.5 214.16-238.5 357.33h-2V6.005l-3.834-3.999h-101.33l-3.834 3.832v294.83l-23.5 4c-33.833 0-50.834-15-50.834-45l-1.999-1.834h-1.835c-6.831 0-14.665 13.668-23.499 41.001V328c0 13.5 12.999 26.502 39 39.168C55.161 371.002 62.994 373 71.826 373c-9.165 10.002-13.665 19.833-13.665 29.334v13.668c0 17.832 5.832 30.832 17.667 39h1.833c5 0 10.833-14.334 17.667-43.002 5.5-6.498 9.333-9.666 11.667-9.666l4 101.5v7.833l-2.001 125c1.001 16.833 3 25.332 6 25.332z"/></glyph><glyph id="glyph11493" unicode="K" horiz-adv-x="648"><path id="path11495" d="M116 656l1.998 2h111.17l3.834-3.998v-269.33l249.83 273.33h136.67l4-4v-5.834l-254-271.33c6.498-13.668 13.664-23.5 21.497-29.334v9.834c0 43.332 32.502 74.499 97.5 93.666l25.5 2h5.835c39-4.833 58.5-20.498 58.5-46.832-5.835-33.834-19.5-50.835-41-50.835-17.167 0-30.169 18.333-39 54.668-4.834 7.833-12 11.832-21.502 11.832h-1.998c-23.334 0-39-20.832-46.833-62.5V345.67c0-46.665 14.332-82.332 42.999-107.5C529.5 164.004 586.83 85.33 642.83 2l-2.001-2.001h-128.84c-45.333 51.5-120.67 151.83-226.33 300.83-28.332-27-45.834-45.168-52.665-54.668l-.168-242.17-3.834-4h-109.17l-3.831 3.834v285.17c0 2.835-9.168 5.502-27.501 7.834-34-4-51-16.998-51-39.165v-5.835h-4c-15.5 10.833-23.333 25.833-23.333 45v11.667c9.165 37.833 26.667 56.667 52.665 56.667l7.835-2c-9.168 12.334-13.668 26.666-13.668 43.001 0 19.167 7.167 32.832 21.666 40.998h5.835c8.499-39.165 18.333-58.665 29.499-58.665l3.999 91.833-1.999 175.66z"/></glyph><glyph id="glyph11497" unicode="E" horiz-adv-x="555"><path id="path11499" d="M134.83 658h398.5l3.832-4V566l-3.832-4H252V424.17c16.332-19.5 37.833-29.165 64.5-29.165 57.333 7.164 86.001 27.333 86.001 60.498-4.668 23.502-13.002 35.166-25.5 35.166h-5.835c-11.667 0-17.499-14.332-17.499-43-3.666-5.166-6.833-7.665-9.833-7.665-19.833 0-31.5 10.332-35.166 31.165v3.834c0 21.168 12.999 33.666 39.165 37.167 44.168-9.168 66.333-25.332 66.333-48.834v-19.5c0-9.831-13-27.333-39-52.833h140.5l3.999-4v-87.998l-4-4.002h-261.67l-3.833-62.334 3.834-132.67c22.165-2.667 54-3.999 95.665-3.999h195.33l4.001-4V3.999l-4.001-4H134.82l-3.832 3.835v281.5c0 4.5-14.334 8.334-43.002 11.667-33.832 0-50.667-15-50.667-45h-4c-15.665 10.833-23.498 25.833-23.498 45v11.832c8.166 37.833 27.165 56.667 56.667 56.667l5.832-1.999c-7.665 6.499-12.999 19.5-15.5 39 0 21.498 6.5 36.498 19.5 45 2.834-1.334 12-18.834 27.335-52.668 7.165-6.5 15-9.834 23.5-9.834l3.833 99.501v169.66l3.832 3.834z"/></glyph><glyph id="glyph11501" unicode="S" horiz-adv-x="538"><path id="path11503" d="M339.5 678h19.665c48.168 0 97.668-12.333 148.5-37.167v-2c-16.167-49.666-28.665-80.335-36.999-91.999l-17.667 9.666v-2c6.5-12.333 9.834-24 9.834-35.166V515.5c-7.167-32.5-27.501-48.834-60.67-48.834-35.331 5.501-52.997 18.5-52.997 39v15.668c0 15.666 9.834 23.499 29.499 23.499h1.833c17.001-1.668 25.5-8.167 25.5-19.5-.333-3.666-6.834-10.167-19.5-19.668v-5.833c4.833-10.668 12-18.5 21.501-23.334 26.166 4.833 39.165 23.667 39.165 56.5 0 25.835-17.665 40.835-52.833 45l-51 4.001h-5.832c-66.666 0-105.83-21.501-117.5-64.5L218 505.832c0-54 54.832-96.333 164.33-127 56.502-21.501 96.168-47.502 119.33-78 20.832-31.668 31.332-61.002 31.332-88.002v-25.332c0-81-51.999-139.67-156.16-175.83C344.666 3.835 315.332.001 288.998.001h-25.332c-64.167 0-124 16.332-179.67 48.999l29.166 93.834c54.501-26.001 91.5-39 111.33-39 11.835-4 32.667-6.5 62.502-7.833 56.665 0 95.665 17 117.16 50.832 6.501 16.167 9.834 29.168 9.834 39v5.835c0 41.667-24.168 72.333-72.5 91.833-5.167 2.666-12.334 3.833-21.499 3.833h-11.835c-31.665 0-53.832-18.168-66.5-54.668l-2-11.665c0-26 11.833-43.002 35.335-50.835h7.833c9.666 0 16.332 5.334 19.5 15.666 0 6.168-7.167 12.668-21.501 19.5l-2 9.834c5.834 7.833 14.333 11.667 25.5 11.667h3.833c13.5 0 21.333-9.167 23.499-27.333v-3.834c0-22.5-15-36.165-45-40.998-32.499 0-51.498 20.832-56.665 62.5v17.498c0 28.335 10.332 53.001 31.165 74.166v2.001c-54.999 17.166-105.83 55-152.5 113.33h-1.833c-44.334 0-66.501-17-66.501-50.835v-1.998c-14.332 0-24.832 14.332-31.332 42.999v15.666c0 33.5 17 53.667 50.832 60.5-12.498 12-19 25-19.5 39 0 16.999 7.002 30.667 21.335 40.999h4c10.166-34.998 20.498-52.665 31.331-52.665 0 36.5 24.168 74.166 72.333 113.33 49.833 31.167 106.67 46.833 170.17 46.833z"/></glyph><glyph id="glyph11505" unicode="P" horiz-adv-x="578"><path id="path11507" d="M300.5 662c149.66 0 238.83-48.165 267.5-144.5 4-13.002 6-27.999 6-45v-21.501c0-97.332-59.334-161.67-177.83-193.33-33.498-7.833-68.665-11.667-105.5-11.667h-56.667V3.832l-3.834-3.834H120.84l-3.834 4v261.83l-27.5 5.832c-36.334-4.666-54.667-18.832-54.667-43v-3.833h-1.833c-15.666 10.668-23.499 23.667-23.499 39v13.668c0 29 13.665 49.167 40.998 60.5l17.502 2c-7.668 8.165-11.667 19.166-11.667 33.167v15.666c0 12.666 7.833 23.667 23.5 33.168 3.5-4.335 8.165-18 13.667-41 5.832-10.5 12.333-15.667 19.5-15.667h1.998l4.002 101.5-2 35.166v144.33c0 4.335 41.666 9.5 125 15.666h58.5zm-66.501-96V359.67c10.5-9.168 26.667-13.668 48.834-13.668 39.165 0 66.666 16.335 82.167 48.834l1.998 9.834c-3.165 23.334-12.333 35.166-27.333 35.166h-3.999c-11.667 0-17.502-3.333-17.502-9.834L320 402.669c-2.502-7.833-9.669-11.667-21.501-11.667-16.833 5.502-25.335 14.502-25.335 27.333v11.667c0 17.166 13.668 27 41 29.334h7.834c25.833 0 44.667-15.666 56.835-47.001 0-19.833-10.5-40.665-31.335-62.499v-5.832c30.333 0 59.667 17.499 88.002 52.665 14.332 23 21.498 45 21.498 66.168 0 44.166-22.833 75.333-68.5 93.498-23.834 7.833-53.165 11.667-87.998 11.667h-3.834L233.999 566z"/></glyph><glyph id="glyph11509" unicode="J" horiz-adv-x="355"><path id="path11511" d="M210.5 736h3.832c3.668 0 9.5-15 17.667-44.832 0-11.502 29.166-18.668 87.834-21.501h23.498l1.834-2h2l-2-33.166v-46.833l4.001-287v-29.334c0-99.165-14.334-163.66-43.002-193.16-42.666-52.167-96-78.168-160.16-78.168h-23.502c-35.332 0-72.498 6.501-111.33 19.668V31.34L24.84 86.173v2.001l-15.5 39.165v11.667c0 33.168 18.833 55.335 56.666 66.501l25.332 3.834c24.668-3 37.167-12 37.167-27.333-3.333-24.834-15-37.167-35.166-37.167H89.34c-7.167 0-20.835 6.498-41.001 19.5h-7.833c-11.334 0-17.832-8.334-19.5-25.335 0-27.333 27.333-40.998 81.999-40.998h15.668c59.499 0 94.665 27.999 105.5 83.832 6.5 29 9.666 60.168 9.666 93.666l-9.666 249.83v36.999l1.833 23.502h-1.833c-35.166 0-52.833-15.668-52.833-46.836-18.165 10.002-27.333 27.668-27.333 52.668 8.5 40.332 23.499 60.5 45 60.5h15.666c-6.5 7.666-11.166 20.833-13.665 39 0 18.166 6.498 33.166 19.5 44.833z"/></glyph></font>
</defs>
</svg>
