<svg xmlns="http://www.w3.org/2000/svg">
<defs>
<font id="font6371" horiz-origin-x="0" horiz-origin-y="0" vert-origin-x="0" horiz-adv-x="0" vert-origin-y="0" class="str1" vert-adv-y="0" font-weight="400" stroke-width="50.003"><font-face id="font-face6373" font-family="Chow Fun"/><glyph id="glyph6379" unicode="-" horiz-adv-x="328"><path id="path6381" d="M18.992 340l291.02 10.016-10.016-84c-108.66 0-202.68-13.669-281.98-41.008l.976 114.99z"/></glyph><glyph id="glyph6383" horiz-adv-x="309"/><glyph id="glyph6385" unicode="I" horiz-adv-x="293"><path id="path6387" d="M253.01 17.008L84-62.016C62.016 12 50.992 101.664 50.992 206.994c0 227.34 32.346 439.02 97.008 635.02l80-35.024c-27.339-83.339-41.008-181.98-41.008-296 0-173.32 22.016-337.98 66.016-493.98z"/></glyph><glyph id="glyph6389" unicode="H" horiz-adv-x="889"><path id="path6391" d="M848.01 554c.652-23.329.992-46.006.992-68.003 0-132.01-22.337-303.33-67.01-514l-69.988 10.006c21.997 63.326 32.995 137 32.995 220.99 0 186.69-40.677 379.67-122 579l179.01 70.015c28.006-117.32 43.342-216.68 46.006-298zm-187-64.006l-50.003-158.99c-34.668 24.009-84.67 43.001-150.01 57.004-57.996 12.671-115.34 18.992-172 18.992-15.987 0-30.671-.652-43.993-1.984l-4.989 63.978c77.33 37.332 158.99 56.012 245 56.012 50.655 0 109.33-11.68 176-35.008zM285 21.994l-179.01-83.99c-37.984 44.674-56.976 127.67-56.976 248.99 0 183.34 32.315 399.99 97.001 650.01l58.989-30.019c-24.009-93.996-36-189.32-36-285.99 0-85.351 9.326-171.01 28.006-257.02 20.664-95.328 50.003-176 87.987-241.99z"/></glyph><glyph id="glyph6393" unicode="N" horiz-adv-x="877"><path id="path6395" d="M852 525c0-176.65-42.661-365.02-128.01-565l-69.987 25.001c35.32 82.006 53.008 174.33 53.008 277 0 128.66-21.005 246.67-63.014 353.99-25.342 11.338-54 17.008-86.003 17.008-98.673 0-207.32-39.004-326.01-117.01l5.017 80.022c70.667 63.326 151.65 115.65 242.98 156.98 98.021 44.674 191.03 68.683 279.01 72 61.993-68.003 93.004-167.98 93.004-299.99zM272.01 4.99L83-75.003c-23.329 84.018-35.008 187.68-35.008 311.02 0 209.99 43.001 404.64 129 583.99l50.003-39.997C196.324 679.35 180.989 563.33 180.989 432c0-162 30.33-304.33 91.02-427.01z"/></glyph><glyph id="glyph6397" unicode="L" horiz-adv-x="694"><path id="path6399" d="M707.01 256L647.001-13.01c-45.326-15.335-99.666-22.989-162.99-22.989-67.351 0-130.68 10.998-190 32.995l-35.008 110.01c32.655-14.683 73.332-21.997 122-21.997 123.34 0 231.99 56.976 326.01 170.98zm-453-228.98L50.99-38.006c-12.671 94.677-18.992 189.01-18.992 283.01 0 248.68 32.655 452.66 97.993 612l64.998-39.997c-24.661-89.319-36.992-184.34-36.992-284.99 0-187.34 32.003-355.66 96.009-504.99z"/></glyph><glyph id="glyph6401" unicode="B" horiz-adv-x="859"><path id="path6403" d="M693.01 654.02c0-48-30.677-98.677-92-152-54.016-46.016-120-85.669-198.02-119.02-75.339-32-136.32-46.992-182.99-44.976l-5.008 64c72.661 16 134.33 38.331 185.01 66.992 72.661 41.323 109.01 89.984 109.01 145.98 0 27.339-13.354 49.669-40 67.024-23.339 14.646-49.354 21.984-78.016 21.984-44.66 0-98.33-14.331-160.98-42.992v73.984c95.307 50.016 180 75.024 253.98 75.024 51.34 0 97.323-13.008 138.02-39.024 47.307-29.323 70.992-68.315 70.992-116.98zm153.01-376c0-83.339-41.354-158.36-124-225.01-78.016-62.016-159.68-93.008-245.01-93.008-37.354 0-74.677 4-112 12-46.677 9.984-80 24.346-100 42.992V69.01c60.661-13.354 114.65-20 161.98-20 62.016 0 116 18.992 162.02 57.008 48.661 40.661 73.008 91.307 73.008 152 0 33.984-11.528 65.165-34.52 93.48-22.992 28.346-51.15 46.835-84.504 55.496l85.008 65.008c58.677-2.677 108.66-20.661 150.02-53.984 45.323-36.693 68-83.339 68-140zM220 0L46.02-70.016c-3.339 53.354-5.008 119.34-5.008 198.02 0 293.32 31.654 522.33 94.992 686.99l64-34.992c-25.323-104-37.984-225.67-37.984-365.01 0-151.34 19.307-289.67 57.984-414.99z"/></glyph><glyph id="glyph6405" unicode="E" horiz-adv-x="838"><path id="path6407" d="M823.01 690l-104-144c-17.348 55.332-56.324 97.341-117.01 126-50.655 23.981-109.33 36-176 36-17.32 0-33.987-.992-49.974-3.005a7149.76 7149.76 0 0081.977 64.998c25.342 16.016 57.004 24.01 95.017 24.01 46.006 0 93.996-10.007 144-30.02 47.99-18.652 89.999-43.313 126-73.984zm-248-238l-89.999-139.01c-15.335 38.664-62.674 57.996-142.02 57.996-33.987 0-65.99-3.005-95.98-8.986l9.978 69.987c61.34 34.668 122.68 52.015 184.02 52.015 54.652 0 99.325-10.686 133.99-32.003zm273-363C754.666.333 640.66-44 506.01-44 369.32-44 256.99-11.685 169 53.001c-98.673 72-148 173.99-148 306 0 100.66 34.668 192.67 104 276.01 73.984 88.667 161.01 133.65 260.98 134.98-59.329-48.671-105-108.65-137-180-30.671-68.655-46.006-142.33-46.006-220.99 0-101.34 28.176-182.01 84.5-242.02 56.352-59.981 134.5-89.999 234.51-89.999 58.677 0 113.67 10.998 165 32.995 57.344 24.69 101 59.357 130.99 104l30.019-84.982z"/></glyph><glyph id="glyph6409" unicode="A" horiz-adv-x="1018"><path id="path6411" d="M997.99-4.989L820-69.987c.652 157.32-12.671 304.98-39.997 443-41.329 207.32-107.66 324.65-198.99 352l84.982 19.984c104-65.338 186.66-176.65 248-334 52.015-133.31 79.993-271.98 83.99-415.98zM720 371.991l-43.993-153.98c-32.655 49.322-99.666 73.984-201 73.984-65.338 0-129.34-7.993-191.99-23.98l4.989 49.973c64.658 57.344 147.34 86.003 248 86.003 68.003 0 129.34-10.658 184-32.003zm-108.99 418.02c-136.66-24.009-239.33-115-308.01-273-54.652-124.67-82.006-271.33-82.006-440.02 0-26.646.68-52.327 2.013-76.988L35.017-60.006l-3.005 79.001c-4.677 131.33 19.672 255.34 72.992 372.02 53.348 116.64 131.02 218.66 233.01 306 18 14.655 43.653 33.987 76.988 57.996 42.009 29.99 67.69 44.986 77.017 44.986 0 0 39.656-3.316 119-9.978z"/></glyph><glyph id="glyph6413" unicode="C" horiz-adv-x="863"><path id="path6415" d="M845 705L744.99 540.99C695.668 649.67 610.01 704.01 488 704.01c-38.664 0-72.34-4.677-101-14.003 23.329 27.326 46.318 54.34 68.995 80.985 21.997 20.012 52.327 30.019 90.992 30.019 89.999 0 189.32-32.003 298-96.009zm39.004-571.01c-48.671-55.332-106.33-98.333-173-129-66.67-30.642-136.69-45.978-210.02-45.978-133.99 0-245.99 34.668-335.99 104-98.673 75.996-148 178.98-148 308.97 0 89.348 40.337 178.67 120.98 268.01 82.686 92.664 167.36 137.68 254.01 134.98h10.006c-135.35-116.64-203.02-239.33-203.02-367.99 0-97.993 32.995-181.5 99.014-250.5 65.99-68.995 148-103.49 245.99-103.49 106.67 0 210.33 51.647 311.02 155l28.998-74.012z"/></glyph><glyph id="glyph6417" unicode="T" horiz-adv-x="704"><path id="path6419" d="M754.01 734.99L650.01 597C544.67 657.661 436.99 687.992 327 687.992c-111.34 0-203.67-23.981-277-72L4.986 672.004c117.35 93.996 252.68 140.99 406 140.99 128.66 0 243.01-25.994 343.02-78.009zM436.99 57L266.01-47c-74.664 71.319-112 158.65-112 262 0 69.987 17.008 145.98 50.995 227.99 32.003 75.344 72.34 143.01 121.01 203.02l77.981-10.998c-65.338-72.68-97.993-154.69-97.993-246.02 0-55.984 12.331-115 36.992-176.99 24.69-59.329 56.012-111 93.996-155z"/></glyph><glyph id="glyph6421" unicode="R" horiz-adv-x="939"><path id="path6423" d="M708 661.01c0-91.332-60.661-161.01-182.01-209-89.319-35.348-187.65-53.688-295-55.02l5.017 75.004C244.653 466.664 256.983 464 273 464c51.335 0 104 14.995 158 45.014 61.993 34.64 93.004 75.316 93.004 121.97 0 26.022-16.668 46.686-50.003 62.022-25.994 11.99-54 18-84.018 18-45.978 0-100.66-10.346-163.98-31.01l10.006 70.014c19.332 18 59.33 32.655 119.99 43.993 48.671 9.326 93.004 14.003 133 14.003 146.01 0 219-49.01 219-147zM946 4.99L722.01-69.986c4.649 18 7.002 36 7.002 54 0 70.667-33.675 145.98-101 225.98-54.68 64.686-119.34 120.33-194 167.02 66.67 16.668 99.976 25.001 99.976 25.001 80.674 0 165.34-47.338 254.01-142.02 78.01-83.99 130.68-169 158-255zM255 14.996L86-69.986c-36 119.99-54 258.66-54 415.98 0 176 29.65 334 89.007 474.01l74.976-35.008c-23.329-86.655-34.979-189.32-34.979-307.98 0-172.69 31.323-326.69 93.996-462.02z"/></glyph><glyph id="glyph6425" unicode="a" horiz-adv-x="656"><path id="path6427" d="M660-8c-21.984-8-42.992-12-62.992-12-68 0-112 30.992-132 93.008-10.677 64-21.354 128-32 192-17.354 78.646-55.339 130.99-114.02 157.01l131.02 54.992c51.307-19.339 85.638-70.677 102.99-154.02 9.323-72 18.646-144 28-216C592.998 33.006 619.329-5.33 659.99-8zM370.02 482.99c-70.016-16.661-155.68-67.654-257.01-152.98l-70.016 80c26.016 28.661 59.181 51.811 99.496 69.48 40.346 17.669 79.842 26.52 118.52 26.52 36.661 0 73.008-7.685 109.01-23.024zm45.984-440.98c-17.984-20-49.984-35.024-96-45.008-36-8-72.346-12-109.01-12-36 0-71.654 13.984-106.99 41.984-37.984 30.016-56.346 62.677-54.992 98.016 1.323 46.646 31.339 88 89.984 124 52.661 32.661 103.68 49.008 153.01 49.008 32 0 64-5.67 96-17.008l-1.984-62.016c-8 2.016-17.354 3.024-28 3.024-31.34 0-63.024-6.678-95.024-20-39.34-17.354-59.34-39.685-60-67.024-.662-21.323 7.023-39.496 23.024-54.488s34.33-22.488 54.992-22.488c32.66 0 70.33 16.976 113.01 50.992l21.984-66.992z"/></glyph><glyph id="glyph6429" unicode="m" horiz-adv-x="899"><path id="path6431" d="M846.99 269.01c0-109.35-24-205.67-72-289.01L702.014-6.992c21.984 63.339 32.976 127.34 32.976 192 0 78.646-21.323 135.34-64 169.98l-97.984 6.016-25.008 66.992c38.016 28.66 124 59.339 258.02 92 27.307-73.323 40.976-157.01 40.976-250.99zm-320.98-13.008c0-105.32-19.024-201.32-57.008-288l-56 30.992c13.984 39.339 21.008 80 21.008 122.02 0 93.323-25.354 175.34-76 245.98L229 361.01l-12 61.008c49.984 49.323 127.65 85.984 233.01 109.98 50.646-77.984 76-169.98 76-276zM222.99 98.992c0-52.661-1.984-98.331-5.984-137.01L50.986 10.99C86.325 69.667 103.994 143.34 103.994 232c0 88.661-13.323 172.35-40 250.99l61.008 25.008c65.323-81.323 97.984-217.67 97.984-409.01z"/></glyph><glyph id="glyph6433" unicode="l" horiz-adv-x="274"><path id="path6435" d="M236 792c-39.339-109.32-58.992-241.98-58.992-397.98C177.008 264 194.677 139 230.016 19c-36.693-36.661-93.669-54.992-171.02-54.992-4 48.661-5.984 108.35-5.984 178.99 0 319.34 40.66 548 121.98 686.02L236 792.01z"/></glyph><glyph id="glyph6437" unicode="o" horiz-adv-x="615"><path id="path6439" d="M592 256c0-66.677-29.008-125.98-86.992-177.98-51.339-46.677-112-77.354-182.02-92.032 34.677 26.677 63.339 60.032 86.016 100.03 24 42.646 36 84.976 36 126.99 0 45.323-9.354 91.339-28 137.98-24 59.339-55.339 87.024-94.016 83.024l73.008 54.992c61.323-5.354 110.02-30.331 146.02-74.992C575.339 371.335 592 318.673 592 255.992zM322.99 60L249.006-8c-58.016-2.016-106.99 19.654-146.99 65.008-37.354 42.646-56 93.323-56 152 0 81.984 24.976 149.01 74.992 201.01 48 50.646 113.01 80.976 194.99 90.992-48.661-60.661-78.992-102.02-90.992-124-21.354-41.354-32-92-32-152 0-44 7.654-81.008 22.992-110.99 19.339-37.354 48-56 86.016-56 6.646 0 13.638.661 20.976 1.984z"/></glyph><glyph id="glyph6441" unicode="c" horiz-adv-x="590"><path id="path6443" d="M546.99 428l-109.98-97.984c-12 25.323-30.016 46.331-54.016 62.992s-49.669 25.008-76.976 25.008c-8 0-15.685-.693-23.024-2.016l80 78.992c12.661 2.677 25.354 4 38.016 4 59.339 0 108-23.654 145.98-70.992zm6.016-356c-22.677-28-62.677-50.677-120-68-48-14.016-94.677-21.008-140-21.008-73.354 0-133.35 19.024-180 57.008-50.016 40.661-74.992 96.661-74.992 168 0 76 25.984 140.66 77.984 194.02 46.016 47.307 108 82.646 186.02 105.98-32.693-32.661-60.693-72.346-84-118.99-26.016-51.339-39.024-97.669-39.024-138.99 0-38.677 17.354-78.016 52-118.02 34.677-40 71.339-60 110.02-60 86.646 0 149.32 30.677 188 92l24-92z"/></glyph><glyph id="glyph6445" unicode="e" horiz-adv-x="646"><path id="path6447" d="M594.02 333.01c0-52-26.362-93.669-79.024-125.01-45.323-26.677-95.654-39.339-150.99-37.984h-33.984L286.998 256c15.339-11.339 34.016-17.008 56-17.008 24.661 0 47.685 7.024 69.008 21.008 24 15.339 36 34.992 36 58.992 0 24.661-10.173 46.016-30.488 64C397.172 401.008 374.337 412 349.014 416c4 17.323 21.984 34.331 53.984 50.992 28.661 14.677 53.354 22.016 74.016 22.016 33.323 0 61.984-18.331 85.984-54.992 20.661-32.693 31.024-66.362 31.024-101.01zM588.004 60c-55.339-60-132.66-90.016-232-90.016-205.32 0-308 85.008-308 255.02 0 70.646 35.34 133.32 106.02 188 65.984 50.646 134.99 76 206.99 76-109.35-84-164-168-164-252 0-50.677 17.008-96 50.992-136 36-42.016 78.992-62.992 129.01-62.992 65.323 0 129.32 33.984 192 101.98l18.992-80z"/></glyph><glyph id="glyph6449" unicode="i" horiz-adv-x="262"><path id="path6452" d="M268 758.99c0-20.661-6.677-38.992-20-54.992-14.677-17.984-32-26.992-52-26.992-15.339 0-27.654 5.827-37.008 17.48-9.323 11.685-13.984 25.165-13.984 40.504 0 20 6.992 38.52 21.008 55.496 13.984 17.008 30.992 25.512 50.992 25.512 15.339 0 27.654-5.67 37.008-17.008 9.323-11.339 13.984-24.661 13.984-40zM237.008 48L90.018-50.992C61.325-5.008 46.994 67.658 46.994 166.988c0 114.02 14.331 233.67 43.024 359.02l68-12c-8-38.677-12-77.669-12-117.01 0-59.339 8-119.68 24-181.01 16-64.661 38.331-120.66 66.992-168z"/></glyph><glyph id="glyph6454" unicode="d" horiz-adv-x="634"><path id="path6456" d="M605.01 533.01c0-138.02-14.016-270.68-42.016-398.02l-85.984-12.976c17.984 62.646 26.992 131.31 26.992 205.98 0 154.68-31.339 298.33-93.984 430.99l146.99 80c32-77.984 48-180 48-305.98zm-64-454.99l-12-73.008c-62.677-20-126.68-30.016-192-30.016-79.339 0-148.66 21.008-208 63.024-66.677 46.646-100 108.32-100 184.98 0 71.339 37.323 135.68 112 193.01 69.323 52.661 141.01 78.992 214.99 78.992 27.339 0 53.323-4 78.016-12V416.01c-18.016 2.677-35.339 4-52 4-54.016 0-101.35-17.669-142.02-53.008-41.984-37.323-62.992-82.331-62.992-134.99 0-56.661 26.992-99.339 81.008-128 42.646-23.339 94.992-34.992 156.98-34.992 44 0 86.016 2.992 126.02 9.008z"/></glyph><glyph id="glyph6458" unicode="n" horiz-adv-x="618"><path id="path6460" d="M562.02 297.01c0-116-20.346-226.33-61.008-331.02l-68 24c17.323 38.016 25.984 86.016 25.984 144.03 0 80-20.661 153.32-61.984 220-42.677 8.661-80 12.976-112 12.976-24.661 0-42.677-2.33-54.016-6.992l-5.984 62.016c92 65.984 180.32 96.976 265.01 92.976l22.992-.976c32.66-58.677 49.008-131.02 49.008-217.01zM219 136c0-72.661-4.315-129.32-12.976-170.02L53.014 21.004c38.646 107.34 57.984 214.33 57.984 321.01 0 63.307-6.992 112.32-20.976 146.99l72.976 25.008c37.354-127.34 56-253.35 56-378.02z"/></glyph><glyph id="glyph6462" unicode="p" horiz-adv-x="599"><path id="path6464" d="M576 258.99c0-59.339-37.008-116.66-110.99-172C395.656 34.329 330.68 7.998 270.02 7.998c-18.677 0-40 2.016-64 6.016l-6.016 72.976c20.661-5.323 40.661-8 60-8 50.677 0 92.661 24.346 126.02 73.008 29.323 44 44 92.66 44 146.02 0 31.307-12.693 58.803-38.016 82.488-25.323 23.654-53.669 35.496-85.008 35.496-30.646 0-64.315-9.323-100.98-28l6.992 80c45.984 28 90.646 42.016 133.98 42.016 60.661 0 114.02-26.52 160-79.528C553.008 377.514 576 320.35 576 258.99zM200-268L46.99-342.016c-10.646 75.339-16 169.35-16 282.02 0 212 23.685 408.35 71.024 589.01l68-25.008c-18.677-91.339-28-200.35-28-326.99 0-162.68 19.307-311.02 57.984-445.01z"/></glyph><glyph id="glyph6466" unicode="t" horiz-adv-x="447"><path id="path6468" d="M436 465.01l-37.008-92-102.99 33.008 5.008 64.976L436 465.01zm-49.984-350.02c-77.354-77.323-153.01-120-227.02-128-21.984 64-32.976 143.02-32.976 237.01 0 64.661 4.976 125.32 14.992 182.02l-134.02-4L0 477.012l158.99 25.008c16.66 66.646 37.354 140.32 62.016 220.98l73.008-24.976c-34.016-96-51.024-201.35-51.024-316 0-93.354 9.008-174.02 27.024-242.02l92 37.008 24-62.016z"/></glyph><glyph id="glyph6470" unicode="r" horiz-adv-x="457"><path id="path6472" d="M481.01 485.01l-80-146.99c-32 28-70.992 41.984-117.01 41.984-33.984 0-66.677-9.984-97.984-29.984l-6.016 80c86.677 55.307 162.02 82.992 226.02 82.992 32.661 0 57.638-9.354 74.992-28zM217.01 44l-160-86.016c-17.354 72.032-26.016 155.34-26.016 250.02 0 116 17.008 218.68 51.024 308l60.976-25.008c-15.339-39.339-22.992-88.661-22.992-148 0-108 32.346-207.65 97.008-298.99z"/></glyph><glyph id="glyph6474" unicode="s" horiz-adv-x="510"><path id="path6476" d="M434.99 462.02l-60.976-89.008c-16 36.661-54.677 59.339-116 68l42.992 49.008c21.323 2.646 37.008 4 46.992 4 23.339 0 52.346-10.677 86.992-32zm37.008-317.01c0-44-23.654-80.346-70.992-109.01-37.354-22.677-81.008-37.008-130.99-42.992C319.339 29.669 344 68.347 344 109.008c0 35.339-24.661 65.323-73.984 89.984-46.016 20-92 40-138.02 60-49.323 26.016-73.984 58.677-73.984 98.016 0 36.661 17.323 69.008 52 97.008 32.661 26.646 68 40 105.98 40 12 0 24-1.354 36-4C215.331 456 197 426.331 197 401.008c0-19.339 23.654-40.346 70.992-62.992 71.339-33.354 115.34-56.346 132-69.008 48-34.016 72-75.339 72-124zm-208-85.008a2194.179 2194.179 0 01-40-38.992C204.659 3.656 189.321-5.006 178.014-5.006c-38.016 0-97.354 25.669-178.02 77.008l92 92c49.323-61.323 106.68-96 172-104z"/></glyph><glyph id="glyph6478" unicode="z" horiz-adv-x="613"><path id="path6480" d="M546.02 409.01c-25.354-58.016-117.35-150.02-276-276l-68 37.008c65.323 41.323 112.66 106.99 141.98 196.98-53.984 16-136 24-245.98 24l-24 68c62.646 16 130.99 24 204.98 24 114.68 0 203.68-24.661 267.02-73.984zM606.996 72c-36-32-84.661-57.323-145.98-76-54.677-16-109.35-24-164-24-96 0-194.99 22.992-297.01 69.008L153.016 140c83.339-44.661 165.98-66.992 248-66.992 65.323 0 117.67 17.984 157.01 53.984L607.002 72z"/></glyph><glyph id="glyph6482" unicode="u" horiz-adv-x="586"><path id="path6484" d="M553.01 465.01c-46.677-78.677-70.016-176.66-70.016-294.02 0-47.339 5.008-94.646 15.024-141.98L430.994-2.014c-37.323 88.032-56 187.68-56 299.02 0 85.323 14.331 163.65 43.024 234.99l134.99-66.992zM362.99 84c-57.323-44.661-149.32-77.323-276-98.016-24.661 66.677-36.976 147.02-36.976 241.01 0 106.68 20.661 206.33 61.984 299.02l54.992-43.024c-4-33.984-5.984-69.984-5.984-108 0-103.34 16.315-179.65 49.008-228.98l128.98 12 24-74.016z"/></glyph><glyph id="glyph6486" unicode="q" horiz-adv-x="622"><path id="path6488" d="M586.02 480c-40-130.68-60-275.34-60-433.98 0-115.34 13.984-220.03 41.984-314.02l-153.98-110.99c-14.677 64-22.016 145.98-22.016 245.98 0 225.35 46.331 440 138.99 644l55.024-30.992zM463 480l-36.976-68c-23.339 10.677-46.016 16-68 16-50.016 0-91.685-26.677-125.01-80-29.354-45.984-44-96-44-149.98 0-37.354 10.835-68 32.504-92s51.15-36 88.504-36c19.307 0 33.638 3.654 42.992 10.992V-5.004c-28-9.984-55.339-14.992-82.016-14.992-64 0-118.99 24.158-164.98 72.504-46.016 48.315-69.008 104.82-69.008 169.51 0 74.646 28.315 141.64 85.008 200.98 56.661 59.339 122.33 89.008 196.98 89.008 52.661 0 100.66-10.677 144-32z"/></glyph><glyph id="glyph6490" unicode="é" horiz-adv-x="646"><path id="path6492" d="M594.02 333.01c0-52-26.362-93.669-79.024-125.01-45.984-26.677-96.315-39.339-150.99-37.984h-33.984L286.998 256c15.339-11.339 34.016-17.008 56-17.008 24.661 0 47.685 7.024 69.008 21.008 24 15.339 36 34.992 36 58.992 0 24.661-10.173 46.016-30.488 64C397.172 401.008 374.337 412 349.014 416c4 17.323 21.984 34.331 53.984 50.992 28.661 14.677 53.354 22.016 74.016 22.016 33.323 0 61.984-18.331 85.984-54.992 20.661-32.693 31.024-66.362 31.024-101.01zM588.004 60c-55.339-60-132.66-90.016-232-90.016-205.32 0-308 85.008-308 255.02 0 70.646 35.34 133.32 106.02 188 65.984 50.646 134.99 76 206.99 76-109.35-84-164-168-164-252 0-50.677 17.008-96 50.992-136 36-42.016 78.992-62.992 129.01-62.992 65.323 0 129.32 33.984 192 101.98l18.992-80zm-118.99 616c-53.354-1.323-106.33-9.323-158.99-24-60-16.661-108.35-39.339-145.01-68 17.323 48.661 49.008 90.992 94.992 126.99 43.34 34.016 91.34 56 144 66.016l65.008-101.01z"/></glyph></font><font id="font5776" horiz-origin-x="0" horiz-origin-y="0" vert-origin-x="0" horiz-adv-x="0" vert-origin-y="0" class="str1" vert-adv-y="0" font-weight="400" stroke-width="50.003"><font-face id="font-face5778" font-family="Chow Fun"/><glyph id="glyph5784" unicode="-" horiz-adv-x="328"><path id="path5787" d="M18.992 340l291.02 10.016-10.016-84c-108.66 0-202.68-13.669-281.98-41.008l.976 114.99z"/></glyph><glyph id="glyph5789" horiz-adv-x="309"/><glyph id="glyph5791" unicode="I" horiz-adv-x="293"><path id="path5793" d="M253.01 17.008L84-62.016C62.016 12 50.992 101.664 50.992 206.994c0 227.34 32.346 439.02 97.008 635.02l80-35.024c-27.339-83.339-41.008-181.98-41.008-296 0-173.32 22.016-337.98 66.016-493.98z"/></glyph><glyph id="glyph5795" unicode="H" horiz-adv-x="889"><path id="path5797" d="M848.01 554c.652-23.329.992-46.006.992-68.003 0-132.01-22.337-303.33-67.01-514l-69.988 10.006c21.997 63.326 32.995 137 32.995 220.99 0 186.69-40.677 379.67-122 579l179.01 70.015c28.006-117.32 43.342-216.68 46.006-298zm-187-64.006l-50.003-158.99c-34.668 24.009-84.67 43.001-150.01 57.004-57.996 12.671-115.34 18.992-172 18.992-15.987 0-30.671-.652-43.993-1.984l-4.989 63.978c77.33 37.332 158.99 56.012 245 56.012 50.655 0 109.33-11.68 176-35.008zM285 21.994l-179.01-83.99c-37.984 44.674-56.976 127.67-56.976 248.99 0 183.34 32.315 399.99 97.001 650.01l58.989-30.019c-24.009-93.996-36-189.32-36-285.99 0-85.351 9.326-171.01 28.006-257.02 20.664-95.328 50.003-176 87.987-241.99z"/></glyph><glyph id="glyph5799" unicode="N" horiz-adv-x="877"><path id="path5801" d="M852 525c0-176.65-42.661-365.02-128.01-565l-69.987 25.001c35.32 82.006 53.008 174.33 53.008 277 0 128.66-21.005 246.67-63.014 353.99-25.342 11.338-54 17.008-86.003 17.008-98.673 0-207.32-39.004-326.01-117.01l5.017 80.022c70.667 63.326 151.65 115.65 242.98 156.98 98.021 44.674 191.03 68.683 279.01 72 61.993-68.003 93.004-167.98 93.004-299.99zM272.01 4.99L83-75.003c-23.329 84.018-35.008 187.68-35.008 311.02 0 209.99 43.001 404.64 129 583.99l50.003-39.997C196.324 679.35 180.989 563.33 180.989 432c0-162 30.33-304.33 91.02-427.01z"/></glyph><glyph id="glyph5803" unicode="L" horiz-adv-x="694"><path id="path5805" d="M707.01 256L647.001-13.01c-45.326-15.335-99.666-22.989-162.99-22.989-67.351 0-130.68 10.998-190 32.995l-35.008 110.01c32.655-14.683 73.332-21.997 122-21.997 123.34 0 231.99 56.976 326.01 170.98zm-453-228.98L50.99-38.006c-12.671 94.677-18.992 189.01-18.992 283.01 0 248.68 32.655 452.66 97.993 612l64.998-39.997c-24.661-89.319-36.992-184.34-36.992-284.99 0-187.34 32.003-355.66 96.009-504.99z"/></glyph><glyph id="glyph5807" unicode="B" horiz-adv-x="859"><path id="path5809" d="M693.01 654.02c0-48-30.677-98.677-92-152-54.016-46.016-120-85.669-198.02-119.02-75.339-32-136.32-46.992-182.99-44.976l-5.008 64c72.661 16 134.33 38.331 185.01 66.992 72.661 41.323 109.01 89.984 109.01 145.98 0 27.339-13.354 49.669-40 67.024-23.339 14.646-49.354 21.984-78.016 21.984-44.66 0-98.33-14.331-160.98-42.992v73.984c95.307 50.016 180 75.024 253.98 75.024 51.34 0 97.323-13.008 138.02-39.024 47.307-29.323 70.992-68.315 70.992-116.98zm153.01-376c0-83.339-41.354-158.36-124-225.01-78.016-62.016-159.68-93.008-245.01-93.008-37.354 0-74.677 4-112 12-46.677 9.984-80 24.346-100 42.992V69.01c60.661-13.354 114.65-20 161.98-20 62.016 0 116 18.992 162.02 57.008 48.661 40.661 73.008 91.307 73.008 152 0 33.984-11.528 65.165-34.52 93.48-22.992 28.346-51.15 46.835-84.504 55.496l85.008 65.008c58.677-2.677 108.66-20.661 150.02-53.984 45.323-36.693 68-83.339 68-140zM220 0L46.02-70.016c-3.339 53.354-5.008 119.34-5.008 198.02 0 293.32 31.654 522.33 94.992 686.99l64-34.992c-25.323-104-37.984-225.67-37.984-365.01 0-151.34 19.307-289.67 57.984-414.99z"/></glyph><glyph id="glyph5811" unicode="E" horiz-adv-x="838"><path id="path5813" d="M823.01 690l-104-144c-17.348 55.332-56.324 97.341-117.01 126-50.655 23.981-109.33 36-176 36-17.32 0-33.987-.992-49.974-3.005a7149.76 7149.76 0 0081.977 64.998c25.342 16.016 57.004 24.01 95.017 24.01 46.006 0 93.996-10.007 144-30.02 47.99-18.652 89.999-43.313 126-73.984zm-248-238l-89.999-139.01c-15.335 38.664-62.674 57.996-142.02 57.996-33.987 0-65.99-3.005-95.98-8.986l9.978 69.987c61.34 34.668 122.68 52.015 184.02 52.015 54.652 0 99.325-10.686 133.99-32.003zm273-363C754.666.333 640.66-44 506.01-44 369.32-44 256.99-11.685 169 53.001c-98.673 72-148 173.99-148 306 0 100.66 34.668 192.67 104 276.01 73.984 88.667 161.01 133.65 260.98 134.98-59.329-48.671-105-108.65-137-180-30.671-68.655-46.006-142.33-46.006-220.99 0-101.34 28.176-182.01 84.5-242.02 56.352-59.981 134.5-89.999 234.51-89.999 58.677 0 113.67 10.998 165 32.995 57.344 24.69 101 59.357 130.99 104l30.019-84.982z"/></glyph><glyph id="glyph5815" unicode="A" horiz-adv-x="1018"><path id="path5817" d="M997.99-4.989L820-69.987c.652 157.32-12.671 304.98-39.997 443-41.329 207.32-107.66 324.65-198.99 352l84.982 19.984c104-65.338 186.66-176.65 248-334 52.015-133.31 79.993-271.98 83.99-415.98zM720 371.991l-43.993-153.98c-32.655 49.322-99.666 73.984-201 73.984-65.338 0-129.34-7.993-191.99-23.98l4.989 49.973c64.658 57.344 147.34 86.003 248 86.003 68.003 0 129.34-10.658 184-32.003zm-108.99 418.02c-136.66-24.009-239.33-115-308.01-273-54.652-124.67-82.006-271.33-82.006-440.02 0-26.646.68-52.327 2.013-76.988L35.017-60.006l-3.005 79.001c-4.677 131.33 19.672 255.34 72.992 372.02 53.348 116.64 131.02 218.66 233.01 306 18 14.655 43.653 33.987 76.988 57.996 42.009 29.99 67.69 44.986 77.017 44.986 0 0 39.656-3.316 119-9.978z"/></glyph><glyph id="glyph5819" unicode="C" horiz-adv-x="863"><path id="path5821" d="M845 705L744.99 540.99C695.668 649.67 610.01 704.01 488 704.01c-38.664 0-72.34-4.677-101-14.003 23.329 27.326 46.318 54.34 68.995 80.985 21.997 20.012 52.327 30.019 90.992 30.019 89.999 0 189.32-32.003 298-96.009zm39.004-571.01c-48.671-55.332-106.33-98.333-173-129-66.67-30.642-136.69-45.978-210.02-45.978-133.99 0-245.99 34.668-335.99 104-98.673 75.996-148 178.98-148 308.97 0 89.348 40.337 178.67 120.98 268.01 82.686 92.664 167.36 137.68 254.01 134.98h10.006c-135.35-116.64-203.02-239.33-203.02-367.99 0-97.993 32.995-181.5 99.014-250.5 65.99-68.995 148-103.49 245.99-103.49 106.67 0 210.33 51.647 311.02 155l28.998-74.012z"/></glyph><glyph id="glyph5823" unicode="T" horiz-adv-x="704"><path id="path5825" d="M754.01 734.99L650.01 597C544.67 657.661 436.99 687.992 327 687.992c-111.34 0-203.67-23.981-277-72L4.986 672.004c117.35 93.996 252.68 140.99 406 140.99 128.66 0 243.01-25.994 343.02-78.009zM436.99 57L266.01-47c-74.664 71.319-112 158.65-112 262 0 69.987 17.008 145.98 50.995 227.99 32.003 75.344 72.34 143.01 121.01 203.02l77.981-10.998c-65.338-72.68-97.993-154.69-97.993-246.02 0-55.984 12.331-115 36.992-176.99 24.69-59.329 56.012-111 93.996-155z"/></glyph><glyph id="glyph5827" unicode="R" horiz-adv-x="939"><path id="path5829" d="M708 661.01c0-91.332-60.661-161.01-182.01-209-89.319-35.348-187.65-53.688-295-55.02l5.017 75.004C244.653 466.664 256.983 464 273 464c51.335 0 104 14.995 158 45.014 61.993 34.64 93.004 75.316 93.004 121.97 0 26.022-16.668 46.686-50.003 62.022-25.994 11.99-54 18-84.018 18-45.978 0-100.66-10.346-163.98-31.01l10.006 70.014c19.332 18 59.33 32.655 119.99 43.993 48.671 9.326 93.004 14.003 133 14.003 146.01 0 219-49.01 219-147zM946 4.99L722.01-69.986c4.649 18 7.002 36 7.002 54 0 70.667-33.675 145.98-101 225.98-54.68 64.686-119.34 120.33-194 167.02 66.67 16.668 99.976 25.001 99.976 25.001 80.674 0 165.34-47.338 254.01-142.02 78.01-83.99 130.68-169 158-255zM255 14.996L86-69.986c-36 119.99-54 258.66-54 415.98 0 176 29.65 334 89.007 474.01l74.976-35.008c-23.329-86.655-34.979-189.32-34.979-307.98 0-172.69 31.323-326.69 93.996-462.02z"/></glyph><glyph id="glyph5831" unicode="a" horiz-adv-x="656"><path id="path5833" d="M660-8c-21.984-8-42.992-12-62.992-12-68 0-112 30.992-132 93.008-10.677 64-21.354 128-32 192-17.354 78.646-55.339 130.99-114.02 157.01l131.02 54.992c51.307-19.339 85.638-70.677 102.99-154.02 9.323-72 18.646-144 28-216C592.998 33.006 619.329-5.33 659.99-8zM370.02 482.99c-70.016-16.661-155.68-67.654-257.01-152.98l-70.016 80c26.016 28.661 59.181 51.811 99.496 69.48 40.346 17.669 79.842 26.52 118.52 26.52 36.661 0 73.008-7.685 109.01-23.024zm45.984-440.98c-17.984-20-49.984-35.024-96-45.008-36-8-72.346-12-109.01-12-36 0-71.654 13.984-106.99 41.984-37.984 30.016-56.346 62.677-54.992 98.016 1.323 46.646 31.339 88 89.984 124 52.661 32.661 103.68 49.008 153.01 49.008 32 0 64-5.67 96-17.008l-1.984-62.016c-8 2.016-17.354 3.024-28 3.024-31.34 0-63.024-6.678-95.024-20-39.34-17.354-59.34-39.685-60-67.024-.662-21.323 7.023-39.496 23.024-54.488s34.33-22.488 54.992-22.488c32.66 0 70.33 16.976 113.01 50.992l21.984-66.992z"/></glyph><glyph id="glyph5835" unicode="m" horiz-adv-x="899"><path id="path5837" d="M846.99 269.01c0-109.35-24-205.67-72-289.01L702.014-6.992c21.984 63.339 32.976 127.34 32.976 192 0 78.646-21.323 135.34-64 169.98l-97.984 6.016-25.008 66.992c38.016 28.66 124 59.339 258.02 92 27.307-73.323 40.976-157.01 40.976-250.99zm-320.98-13.008c0-105.32-19.024-201.32-57.008-288l-56 30.992c13.984 39.339 21.008 80 21.008 122.02 0 93.323-25.354 175.34-76 245.98L229 361.01l-12 61.008c49.984 49.323 127.65 85.984 233.01 109.98 50.646-77.984 76-169.98 76-276zM222.99 98.992c0-52.661-1.984-98.331-5.984-137.01L50.986 10.99C86.325 69.667 103.994 143.34 103.994 232c0 88.661-13.323 172.35-40 250.99l61.008 25.008c65.323-81.323 97.984-217.67 97.984-409.01z"/></glyph><glyph id="glyph5839" unicode="l" horiz-adv-x="274"><path id="path5841" d="M236 792c-39.339-109.32-58.992-241.98-58.992-397.98C177.008 264 194.677 139 230.016 19c-36.693-36.661-93.669-54.992-171.02-54.992-4 48.661-5.984 108.35-5.984 178.99 0 319.34 40.66 548 121.98 686.02L236 792.01z"/></glyph><glyph id="glyph5843" unicode="o" horiz-adv-x="615"><path id="path5845" d="M592 256c0-66.677-29.008-125.98-86.992-177.98-51.339-46.677-112-77.354-182.02-92.032 34.677 26.677 63.339 60.032 86.016 100.03 24 42.646 36 84.976 36 126.99 0 45.323-9.354 91.339-28 137.98-24 59.339-55.339 87.024-94.016 83.024l73.008 54.992c61.323-5.354 110.02-30.331 146.02-74.992C575.339 371.335 592 318.673 592 255.992zM322.99 60L249.006-8c-58.016-2.016-106.99 19.654-146.99 65.008-37.354 42.646-56 93.323-56 152 0 81.984 24.976 149.01 74.992 201.01 48 50.646 113.01 80.976 194.99 90.992-48.661-60.661-78.992-102.02-90.992-124-21.354-41.354-32-92-32-152 0-44 7.654-81.008 22.992-110.99 19.339-37.354 48-56 86.016-56 6.646 0 13.638.661 20.976 1.984z"/></glyph><glyph id="glyph5847" unicode="c" horiz-adv-x="590"><path id="path5849" d="M546.99 428l-109.98-97.984c-12 25.323-30.016 46.331-54.016 62.992s-49.669 25.008-76.976 25.008c-8 0-15.685-.693-23.024-2.016l80 78.992c12.661 2.677 25.354 4 38.016 4 59.339 0 108-23.654 145.98-70.992zm6.016-356c-22.677-28-62.677-50.677-120-68-48-14.016-94.677-21.008-140-21.008-73.354 0-133.35 19.024-180 57.008-50.016 40.661-74.992 96.661-74.992 168 0 76 25.984 140.66 77.984 194.02 46.016 47.307 108 82.646 186.02 105.98-32.693-32.661-60.693-72.346-84-118.99-26.016-51.339-39.024-97.669-39.024-138.99 0-38.677 17.354-78.016 52-118.02 34.677-40 71.339-60 110.02-60 86.646 0 149.32 30.677 188 92l24-92z"/></glyph><glyph id="glyph5851" unicode="e" horiz-adv-x="646"><path id="path5853" d="M594.02 333.01c0-52-26.362-93.669-79.024-125.01-45.323-26.677-95.654-39.339-150.99-37.984h-33.984L286.998 256c15.339-11.339 34.016-17.008 56-17.008 24.661 0 47.685 7.024 69.008 21.008 24 15.339 36 34.992 36 58.992 0 24.661-10.173 46.016-30.488 64C397.172 401.008 374.337 412 349.014 416c4 17.323 21.984 34.331 53.984 50.992 28.661 14.677 53.354 22.016 74.016 22.016 33.323 0 61.984-18.331 85.984-54.992 20.661-32.693 31.024-66.362 31.024-101.01zM588.004 60c-55.339-60-132.66-90.016-232-90.016-205.32 0-308 85.008-308 255.02 0 70.646 35.34 133.32 106.02 188 65.984 50.646 134.99 76 206.99 76-109.35-84-164-168-164-252 0-50.677 17.008-96 50.992-136 36-42.016 78.992-62.992 129.01-62.992 65.323 0 129.32 33.984 192 101.98l18.992-80z"/></glyph><glyph id="glyph5855" unicode="i" horiz-adv-x="262"><path id="path5857" d="M268 758.99c0-20.661-6.677-38.992-20-54.992-14.677-17.984-32-26.992-52-26.992-15.339 0-27.654 5.827-37.008 17.48-9.323 11.685-13.984 25.165-13.984 40.504 0 20 6.992 38.52 21.008 55.496 13.984 17.008 30.992 25.512 50.992 25.512 15.339 0 27.654-5.67 37.008-17.008 9.323-11.339 13.984-24.661 13.984-40zM237.008 48L90.018-50.992C61.325-5.008 46.994 67.658 46.994 166.988c0 114.02 14.331 233.67 43.024 359.02l68-12c-8-38.677-12-77.669-12-117.01 0-59.339 8-119.68 24-181.01 16-64.661 38.331-120.66 66.992-168z"/></glyph><glyph id="glyph5859" unicode="d" horiz-adv-x="634"><path id="path5861" d="M605.01 533.01c0-138.02-14.016-270.68-42.016-398.02l-85.984-12.976c17.984 62.646 26.992 131.31 26.992 205.98 0 154.68-31.339 298.33-93.984 430.99l146.99 80c32-77.984 48-180 48-305.98zm-64-454.99l-12-73.008c-62.677-20-126.68-30.016-192-30.016-79.339 0-148.66 21.008-208 63.024-66.677 46.646-100 108.32-100 184.98 0 71.339 37.323 135.68 112 193.01 69.323 52.661 141.01 78.992 214.99 78.992 27.339 0 53.323-4 78.016-12V416.01c-18.016 2.677-35.339 4-52 4-54.016 0-101.35-17.669-142.02-53.008-41.984-37.323-62.992-82.331-62.992-134.99 0-56.661 26.992-99.339 81.008-128 42.646-23.339 94.992-34.992 156.98-34.992 44 0 86.016 2.992 126.02 9.008z"/></glyph><glyph id="glyph5863" unicode="n" horiz-adv-x="618"><path id="path5865" d="M562.02 297.01c0-116-20.346-226.33-61.008-331.02l-68 24c17.323 38.016 25.984 86.016 25.984 144.03 0 80-20.661 153.32-61.984 220-42.677 8.661-80 12.976-112 12.976-24.661 0-42.677-2.33-54.016-6.992l-5.984 62.016c92 65.984 180.32 96.976 265.01 92.976l22.992-.976c32.66-58.677 49.008-131.02 49.008-217.01zM219 136c0-72.661-4.315-129.32-12.976-170.02L53.014 21.004c38.646 107.34 57.984 214.33 57.984 321.01 0 63.307-6.992 112.32-20.976 146.99l72.976 25.008c37.354-127.34 56-253.35 56-378.02z"/></glyph><glyph id="glyph5867" unicode="p" horiz-adv-x="599"><path id="path5869" d="M576 258.99c0-59.339-37.008-116.66-110.99-172C395.656 34.329 330.68 7.998 270.02 7.998c-18.677 0-40 2.016-64 6.016l-6.016 72.976c20.661-5.323 40.661-8 60-8 50.677 0 92.661 24.346 126.02 73.008 29.323 44 44 92.66 44 146.02 0 31.307-12.693 58.803-38.016 82.488-25.323 23.654-53.669 35.496-85.008 35.496-30.646 0-64.315-9.323-100.98-28l6.992 80c45.984 28 90.646 42.016 133.98 42.016 60.661 0 114.02-26.52 160-79.528C553.008 377.514 576 320.35 576 258.99zM200-268L46.99-342.016c-10.646 75.339-16 169.35-16 282.02 0 212 23.685 408.35 71.024 589.01l68-25.008c-18.677-91.339-28-200.35-28-326.99 0-162.68 19.307-311.02 57.984-445.01z"/></glyph><glyph id="glyph5871" unicode="t" horiz-adv-x="447"><path id="path5873" d="M436 465.01l-37.008-92-102.99 33.008 5.008 64.976L436 465.01zm-49.984-350.02c-77.354-77.323-153.01-120-227.02-128-21.984 64-32.976 143.02-32.976 237.01 0 64.661 4.976 125.32 14.992 182.02l-134.02-4L0 477.012l158.99 25.008c16.66 66.646 37.354 140.32 62.016 220.98l73.008-24.976c-34.016-96-51.024-201.35-51.024-316 0-93.354 9.008-174.02 27.024-242.02l92 37.008 24-62.016z"/></glyph><glyph id="glyph5875" unicode="r" horiz-adv-x="457"><path id="path5877" d="M481.01 485.01l-80-146.99c-32 28-70.992 41.984-117.01 41.984-33.984 0-66.677-9.984-97.984-29.984l-6.016 80c86.677 55.307 162.02 82.992 226.02 82.992 32.661 0 57.638-9.354 74.992-28zM217.01 44l-160-86.016c-17.354 72.032-26.016 155.34-26.016 250.02 0 116 17.008 218.68 51.024 308l60.976-25.008c-15.339-39.339-22.992-88.661-22.992-148 0-108 32.346-207.65 97.008-298.99z"/></glyph><glyph id="glyph5879" unicode="s" horiz-adv-x="510"><path id="path5881" d="M434.99 462.02l-60.976-89.008c-16 36.661-54.677 59.339-116 68l42.992 49.008c21.323 2.646 37.008 4 46.992 4 23.339 0 52.346-10.677 86.992-32zm37.008-317.01c0-44-23.654-80.346-70.992-109.01-37.354-22.677-81.008-37.008-130.99-42.992C319.339 29.669 344 68.347 344 109.008c0 35.339-24.661 65.323-73.984 89.984-46.016 20-92 40-138.02 60-49.323 26.016-73.984 58.677-73.984 98.016 0 36.661 17.323 69.008 52 97.008 32.661 26.646 68 40 105.98 40 12 0 24-1.354 36-4C215.331 456 197 426.331 197 401.008c0-19.339 23.654-40.346 70.992-62.992 71.339-33.354 115.34-56.346 132-69.008 48-34.016 72-75.339 72-124zm-208-85.008a2194.179 2194.179 0 01-40-38.992C204.659 3.656 189.321-5.006 178.014-5.006c-38.016 0-97.354 25.669-178.02 77.008l92 92c49.323-61.323 106.68-96 172-104z"/></glyph><glyph id="glyph5883" unicode="z" horiz-adv-x="613"><path id="path5885" d="M546.02 409.01c-25.354-58.016-117.35-150.02-276-276l-68 37.008c65.323 41.323 112.66 106.99 141.98 196.98-53.984 16-136 24-245.98 24l-24 68c62.646 16 130.99 24 204.98 24 114.68 0 203.68-24.661 267.02-73.984zM606.996 72c-36-32-84.661-57.323-145.98-76-54.677-16-109.35-24-164-24-96 0-194.99 22.992-297.01 69.008L153.016 140c83.339-44.661 165.98-66.992 248-66.992 65.323 0 117.67 17.984 157.01 53.984L607.002 72z"/></glyph><glyph id="glyph5887" unicode="u" horiz-adv-x="586"><path id="path5889" d="M553.01 465.01c-46.677-78.677-70.016-176.66-70.016-294.02 0-47.339 5.008-94.646 15.024-141.98L430.994-2.014c-37.323 88.032-56 187.68-56 299.02 0 85.323 14.331 163.65 43.024 234.99l134.99-66.992zM362.99 84c-57.323-44.661-149.32-77.323-276-98.016-24.661 66.677-36.976 147.02-36.976 241.01 0 106.68 20.661 206.33 61.984 299.02l54.992-43.024c-4-33.984-5.984-69.984-5.984-108 0-103.34 16.315-179.65 49.008-228.98l128.98 12 24-74.016z"/></glyph><glyph id="glyph5891" unicode="q" horiz-adv-x="622"><path id="path5893" d="M586.02 480c-40-130.68-60-275.34-60-433.98 0-115.34 13.984-220.03 41.984-314.02l-153.98-110.99c-14.677 64-22.016 145.98-22.016 245.98 0 225.35 46.331 440 138.99 644l55.024-30.992zM463 480l-36.976-68c-23.339 10.677-46.016 16-68 16-50.016 0-91.685-26.677-125.01-80-29.354-45.984-44-96-44-149.98 0-37.354 10.835-68 32.504-92s51.15-36 88.504-36c19.307 0 33.638 3.654 42.992 10.992V-5.004c-28-9.984-55.339-14.992-82.016-14.992-64 0-118.99 24.158-164.98 72.504-46.016 48.315-69.008 104.82-69.008 169.51 0 74.646 28.315 141.64 85.008 200.98 56.661 59.339 122.33 89.008 196.98 89.008 52.661 0 100.66-10.677 144-32z"/></glyph><glyph id="glyph5895" unicode="é" horiz-adv-x="646"><path id="path5897" d="M594.02 333.01c0-52-26.362-93.669-79.024-125.01-45.984-26.677-96.315-39.339-150.99-37.984h-33.984L286.998 256c15.339-11.339 34.016-17.008 56-17.008 24.661 0 47.685 7.024 69.008 21.008 24 15.339 36 34.992 36 58.992 0 24.661-10.173 46.016-30.488 64C397.172 401.008 374.337 412 349.014 416c4 17.323 21.984 34.331 53.984 50.992 28.661 14.677 53.354 22.016 74.016 22.016 33.323 0 61.984-18.331 85.984-54.992 20.661-32.693 31.024-66.362 31.024-101.01zM588.004 60c-55.339-60-132.66-90.016-232-90.016-205.32 0-308 85.008-308 255.02 0 70.646 35.34 133.32 106.02 188 65.984 50.646 134.99 76 206.99 76-109.35-84-164-168-164-252 0-50.677 17.008-96 50.992-136 36-42.016 78.992-62.992 129.01-62.992 65.323 0 129.32 33.984 192 101.98l18.992-80zm-118.99 616c-53.354-1.323-106.33-9.323-158.99-24-60-16.661-108.35-39.339-145.01-68 17.323 48.661 49.008 90.992 94.992 126.99 43.34 34.016 91.34 56 144 66.016l65.008-101.01z"/></glyph></font><font id="FontID0" horiz-origin-x="0" horiz-origin-y="0" vert-origin-x="0" horiz-adv-x="0" vert-origin-y="0" class="str1" vert-adv-y="0" font-variant="small-caps,normal" font-weight="400" stroke-width="50.003"><font-face id="font-face7" font-family="Chow Fun"/><glyph id="glyph13" horiz-adv-x="255" unicode=","><path id="path15" d="M216 35.008c0-78.024-45.319-140.67-135.99-188.01 22.642 41.988 33.981 84.331 33.981 126.99 0 52.016-20.976 89.682-63 113l132.02 63c22.004-33.307 32.988-71.646 32.988-114.98z"/></glyph><glyph id="glyph17" horiz-adv-x="309"/><glyph id="glyph19" horiz-adv-x="327" unicode="-"><path id="path21" d="M18.992 340l291 10.016L300 266.015c-108.66 0-202.68-13.677-282-41.008l.992 114.99z"/></glyph><glyph id="glyph23" horiz-adv-x="679" unicode="6"><path id="path25" d="M666 269.01C666 141.66 610.653 78 500.01 78c-30 0-57.686 3-83.008 9 56.008 86.01 84.001 159 84.001 219 0 32.008-9.33 60.166-27.992 84.497-18.685 24.331-43.678 36.496-75.001 36.496-29.339 0-67.678-9-115.02-27l45 89.01c35.339 16.653 70.678 24.991 106.02 24.991 66.662 0 121.98-24 165.99-72 43.985-48 66-105.66 66-172.99zm-48 436l-97.016-74.008c-31.323 49.347-74.977 74.008-130.98 74.008-60 0-105-41.339-135-124.02-21.992-60-33-126.99-33-200.98 0-90.686 18.992-168.69 57-234 45.992-78.686 111-118.02 195-118.02 22.654 0 40.985 4.677 54.993 14.008-24-48.662-70.654-72.993-139.98-72.993-86.67 0-167.01 37.323-241.02 111.99-73.985 74.67-111 156-111 243.99 0 128.67 29.339 237 88.016 325 67.323 101.34 162.33 152.01 285 152.01 83.316 0 152.65-32.339 207.99-96.993z"/></glyph><glyph id="glyph27" horiz-adv-x="613" unicode="7"><path id="path29" d="M658 772l-60-74.008c-20.008 6-47.339 9-81.993 9-144.66 0-306.33-57.662-485.01-172.99l68.008 208.99c99.332 37.347 213 56.008 341.01 56.008 76.654 0 149.32-9 217.99-27zm-96.993-111c-67.347-94.654-124.68-208.99-171.99-343-44.008-124.68-73.678-249-89.009-373L113.018-3.008c18 111.99 61.654 230.01 130.98 354 64.678 114 140.34 214.66 227.01 301.99l90.001 8.008z"/></glyph><glyph id="glyph31" horiz-adv-x="789" unicode="4"><path id="path33" d="M792.01 212.01l-112.02-30v66.993c34.677 0 72.001 9.992 112.02 30V212.01zM672.01-12L479.02-57c-2.67 25.323-4.016 58.678-4.016 99.993 0 209.34 30.992 414.66 93.001 616l81.993 45c-9.992-79.985-15-175.66-15-286.99 0-157.35 12.354-300.33 37.016-429zm-7.016 865l-15-81.993c-79.985-44.008-156.33-112.02-228.99-204-66-82.678-118.98-171.33-159-266.01 12-25.984 66.662-45.662 164.01-58.985v-105c-14.669-3.33-35.339-5.008-62.008-5.008-89.339 0-205.32 18.992-348 57 62.008 136.66 151.68 265.66 269.01 387 120 123.33 246.66 215.67 379.99 276.99z"/></glyph><glyph id="glyph35" horiz-adv-x="726" unicode="0"><path id="path37" d="M715 479.01c0-35.339-1.654-61.678-5.008-79.016L706 378.002l-2.008-5.008-.992 1.016c-3.992-78.001-41.008-166.68-111-266.01l-126.99 3c48 56.008 72 161.01 72 315 0 82.654-16.346 152.34-48.991 208.99C448.003 704.345 389.679 739 312.999 739c-31.984 0-66-6.662-102-20.008C242.346 784.33 298.66 817 380.019 817c104.65 0 186.66-30.331 245.98-90.993 59.339-60.662 89.009-143.01 89.009-246.99zm-170.01-408C522.998 22.325 477.336-2.006 408.01-2.006c-94.678 0-179.67 40.678-255 122.01C77.679 201.335 40 290.014 40 386.014c0 107.32 20.67 198.99 62.008 274.99l183 21.992c-42-50.646-63-129.66-63-236.98 0-99.355 19.654-184.68 59.008-256.02 48.662-88.654 118.65-132.99 210-132.99 22.654 0 40.654 4.677 53.977 14.008z"/></glyph><glyph id="glyph39" horiz-adv-x="705" unicode="5"><path id="path41" d="M652 765.01l-96.993-142.02c-111.99 50.008-207.66 75.001-287.01 75.001-37.985 0-66.662-4.984-85.985-15l-52.016-320.98-73.985-44.008 51.992 432c68.67 42.662 153.99 63.993 255.99 63.993s198-16.323 288-48.992zm38.008-478c0-82.678-37.678-153-113.01-211.02-67.323-52.654-144.33-81.331-231-85.985 46.016 27.992 83.67 66.497 113.01 115.49 29.339 48.992 43.985 99.828 43.985 152.5 0 53.339-18.992 95.339-56.977 126-35.339 29.339-80.008 44.008-134.01 44.008-43.347 0-81.662-9.354-114.99-28.016v67.016c55.985 34.654 115.65 51.992 178.99 51.992 73.347 0 141.66-20.008 204.99-60 72.686-45.992 109.02-103.35 109.02-171.99zM360.998 57c-21.992-19.323-43.985-38.67-66-57.993-29.339-22.677-54.331-34.016-75.001-34.016-62.67 0-124.98 23.339-186.99 70.016l90.001 148.98c20.67-42.662 54-75.331 99.993-97.985 42.662-20.67 88.678-30.331 138-29.008z"/></glyph><glyph id="glyph43" horiz-adv-x="657" unicode="9"><path id="path45" d="M634 453c0-126.66-25.323-234.99-75.993-325-62.008-110.01-151.35-165-267.99-165-52.678 0-101.5 13.323-146.5 39.992-45 26.67-78.827 63-101.5 108.99l96.993 82.016c12-36.685 31.347-67.347 58.016-92.009 30-27.992 62.646-42 97.985-42 65.339 0 112.68 50.67 142.02 152.01 19.984 67.985 30 145.66 30 232.99 0 75.331-15.685 138.99-47.008 191.01-38.008 61.323-92.67 91.985-164.01 91.985-31.984 0-66-6.662-102-19.984 34.016 65.339 91.678 97.985 173.01 97.985 111.99 0 192.66-32.315 241.99-96.993 43.347-56.67 65.008-141.99 65.008-255.99zm-226.99-50.008c-2.67-61.323-6-97.324-10.016-108-11.339-33.331-39.662-49.985-84.993-49.985-66.662 0-123 19.323-168.99 57.993-49.347 40.654-74.008 93.662-74.008 159 0 54 13.323 118.65 39.992 193.99 60 21.354 107.67 31.677 143.01 31.016l29.008-1.016c-35.339-54-53.008-108.99-53.008-165 0-38.646 8.008-73.985 24-105.99 19.323-39.992 46.323-60 81.001-60 26.008 0 50.67 16.016 74.008 48z"/></glyph><glyph id="glyph47" horiz-adv-x="706" unicode="8"><path id="path49" d="M625 654c0-28.016-7.323-60-21.992-96.001-17.339-43.347-37.347-65.008-60-65.008-4.677 0-52.347 24.992-143.01 75.001 11.339 8.67 20.67 22.677 28.016 42 6.662 17.339 9.992 33.662 9.992 48.992 0 21.354-12.992 37.347-39 48-7.346 3.354-29.339 9.354-66 18 6 21.354 17.835 38.67 35.504 52.016 17.67 13.323 37.488 19.984 59.504 19.984 54 0 98.316-10.323 132.99-30.992 42.662-24.662 63.993-62.008 63.993-111.99zm54.993-426c0-62.008-34.158-122.84-102.5-182.5-68.316-59.67-134.15-89.505-197.48-89.505-22.677 0-45.685 3-69 9 44.646 26.67 83.316 56.008 115.98 88.016 44.67 43.985 67.016 84.331 67.016 120.99 0 46.654-34.677 91.324-104.01 134.01a26536.029 26536.029 0 00-192 105c-69.331 43.323-104.01 89.646-104.01 138.99 0 62.67 22.843 117.17 68.504 163.49 45.662 46.347 100.16 71.835 163.51 76.512-59.339-54.662-89.009-107.34-89.009-158.01 0-34.654 38.339-74.008 114.99-117.99 70.678-39.992 141.66-80.339 213-120.99 76.678-53.339 114.99-109.02 114.99-167.01zM356.013 54c-23.339-16.677-46.678-33.331-70.016-50.008C257.343-14.67 231.666-24 209.012-24c-42.685 0-81.686 18.496-117 55.489-35.339 37.016-53.008 76.843-53.008 119.5 0 80.008 48.331 149.67 144.99 209.01l149.01-75.001c-60.662-40.678-90.993-87.001-90.993-138.99 0-27.331 12-50.174 36-68.504 24-18.331 49.985-26.173 78.001-23.504z"/></glyph><glyph id="glyph51" horiz-adv-x="757" unicode="3"><path id="path53" d="M723.01 228.99c0-69.993-35.339-130.66-106.02-181.99C552.336.322 483.33-23.016 410.01-23.016c-36.685 0-75.355 4.677-116.01 14.008C352.654 11 402.99 41.331 444.99 81.985c48 47.339 72.001 99.001 72.001 155.01 0 53.339-20.67 100.65-61.985 141.99-38.008 37.347-84.355 62.008-139.02 74.008 119.34 22.654 179.01 79.985 179.01 171.99 0 37.347-11.008 63.331-33 78.001-18 12.662-46.678 18.992-86.009 18.992-39.992 0-78.331-13.654-114.99-40.985-33.331-24.662-59.67-55.678-78.993-93.001L99.988 706.97c83.339 73.347 176.67 110.01 280.02 110.01 61.323 0 122.65-15.662 183.99-47.008 73.323-36.662 109.98-82.654 109.98-138 0-39.331-10.984-76.985-33-112.98-21.992-36-50.646-63-85.985-81.001 111.99-47.339 168-117 168-209.01zm-414-186L212.017-9.002c-28.677 0-62.67 14.339-102 42.992-30.685 21.331-58.678 46.678-84.001 76.016l103.98 156.99c4.677-46.678 25.016-91.347 61.016-134.01 32.646-38.67 72.001-68.67 117.99-90.001z"/></glyph><glyph id="glyph55" horiz-adv-x="670" unicode="2"><path id="path57" d="M436 736c-59.339-14.669-114.99-39.331-166.99-74.008-58.678-38.646-100.35-82.324-125.01-130.98l-80.008 168.99c75.331 71.339 157.68 106.68 247.02 105.99h18l106.98-69.993zm206.01-144c0-77.339-46.678-148.32-140.01-213a89319.002 89319.002 0 01-256.99-157.98C153.001 155.02 108.33 81.67 111 1L51.992-30.984c-6 32.67-9 66.331-9 100.98 0 102.66 40.016 192.33 120 269.01 74.67 55.323 149.34 110.67 224.01 165.99 80.008 60 120 120.66 120 182.01 0 55.985-32.008 96.662-96.001 121.98 51.992-1.984 102.99-25.323 153-69.993 51.992-47.339 78-96.332 78-147zm16.984-490L552.014-42.99c-56.008 42.662-140.67 63.993-254.01 63.993-53.339 0-100.98-3.661-142.98-11.008l33.992 90.001c65.339 38.008 138.66 57 219.99 57 93.331 0 176.67-18.331 249.99-54.993z"/></glyph><glyph id="glyph59" horiz-adv-x="203" unicode=":"><path id="path61" d="M178.02 52.016c0-22.004-7.866-42.52-23.528-61.512s-34.158-28.488-55.489-28.488c-19.984 0-37.347 9-52.016 27-13.996 15.98-20.976 34.335-20.976 54.993 0 22.004 7.83 42.485 23.492 61.477 15.662 19.028 34.158 28.524 55.489 28.524 20.02 0 37.17-8.504 51.52-25.512 14.315-17.008 21.508-35.823 21.508-56.481zM27 343.986c-1.984 22.004 4.181 42.52 18.496 61.512C59.846 424.49 77.67 433.986 99 433.986c19.984 0 37.666-8.504 53.008-25.477 15.307-17.008 23.988-35.859 26.008-56.516 1.311-22.004-5.173-42.485-19.524-61.512-14.315-18.992-32.174-28.488-53.504-28.488-19.984 0-37.985 9-54 27C36.319 305.009 28.346 323.328 27 343.986z"/></glyph><glyph id="glyph63" horiz-adv-x="282" unicode="1"><path id="path65" d="M251.01 12l-171-66.993c-19.347 67.323-29.008 159.99-29.008 277.99 0 192.66 32.008 393 96.001 601l66.993-21.992c-29.339-81.993-43.985-188.34-43.985-319 0-157.35 27-314.34 81.001-471z"/></glyph><glyph id="glyph67" horiz-adv-x="864" unicode="C"><path id="path69" d="M845.02 705.02L744.99 541c-49.323 108.67-135 162.99-257 162.99-38.658 0-72.32-4.642-100.98-13.996 23.315 27.354 46.347 54.355 68.989 81.001 22.004 20.02 52.335 30.012 90.993 30.012 90.001 0 189.36-31.996 298.03-95.989zm38.977-571.01C835.347 78.663 777.657 35.682 711.007 5c-66.686-30.65-136.67-45.992-210.01-45.992-134.01 0-245.98 34.654-335.98 104-98.682 76.004-148 179.01-148 309.01 0 89.328 40.323 178.66 121 267.98 82.666 92.658 167.32 137.66 253.99 135h9.992c-135.32-116.68-203-239.32-203-368.01 0-97.973 33.024-181.49 99.001-250.48 66.012-69.024 148-103.5 246.01-103.5 106.65 0 210.33 51.662 311 154.98l28.984-73.985z"/></glyph><glyph id="glyph71" horiz-adv-x="684" unicode="F"><path id="path73" d="M733.01 760.01c-.673-43.335-32.351-101.34-94.997-174.01-34.689 30.685-76.359 55.489-125.01 74.516-48.685 18.992-95.67 28.488-140.99 28.488-53.363 0-103.68-12.685-151.02-37.985L230.985 730c72.001 37.985 167.35 57.012 286.02 57.012 71.327 0 143.33-9 216-27zM509 472.01l-89.009-159.02c-24.662 54-84.65 81.001-180 81.001-13.323 0-26.327-.638-38.977-1.984l9.992 75.012c53.327 22.642 107.01 33.98 161.01 33.98 55.985 0 101.66-9.673 136.98-28.983zM225.99 5l-184-80.008c-18.638 87.343-27.992 177.34-27.992 270 0 101.34 10.665 204.66 31.996 310.01 22.677 112.68 54.355 211.01 94.997 295.02l45-35.008c-20.658-58.004-31.004-134.33-31.004-229.01 0-164.66 23.67-341.68 71.008-531z"/></glyph><glyph id="glyph75" horiz-adv-x="1045" unicode="O"><path id="path77" d="M1025 444.97c0-93.331-32.315-182.98-97.016-268.94-60.662-82.064-135.36-142.37-224.01-181.06C803.329 111.69 853.004 236.7 853.004 370c0 93.331-34.016 178.51-102.05 255.47-67.961 77.032-147.62 115.51-238.96 115.51-30.685 0-61.016-5.315-90.993-16.016l93.969 90.001c27.354 3.402 54 5.032 80.008 5.032 114.02 0 212.67-33.662 296.01-100.98 89.292-71.363 134.01-162.71 134.01-274.04zm-336.05-361L623.965-19.99c-56.622-12.047-110.62-18-162-18-121.32 0-221.32 32.315-299.98 97.016-84.686 69.308-126.99 163.63-126.99 282.97 0 98.009 39.331 193.82 117.99 287.51 78.662 93.686 166.32 147.19 262.99 160.51-63.993-50.032-113.67-108.99-148.96-177.02-36.709-70.016-54.993-144.36-54.993-223.02 0-100.63 31.819-181.35 95.457-242.01 63.709-60.662 146.2-90.993 247.54-90.993 57.969 0 102.62 9 133.94 27z"/></glyph><glyph id="glyph79" horiz-adv-x="877" unicode="N"><path id="path81" d="M852 525.02c0-176.67-42.662-365-127.98-565.02l-70.016 25.016c35.327 81.993 53.008 174.33 53.008 276.98 0 128.66-21.012 246.69-63 354.02-25.335 11.339-54 17.008-85.997 17.008-98.682 0-207.32-39.012-325.99-117l4.996 79.973c70.654 63.355 151.66 115.69 243 157 97.973 44.682 190.99 68.67 278.97 72.001 62.008-67.997 93.012-167.99 93.012-299.98zM271.99 5l-189-80.008c-23.315 84.012-34.973 187.69-34.973 311 0 210.01 42.981 404.68 128.98 584.01l49.996-40.004c-30.65-100.67-45.992-216.68-45.992-347.99 0-162 30.331-304.34 90.993-427.01z"/></glyph><glyph id="glyph83" horiz-adv-x="837" unicode="E"><path id="path85" d="M823.01 689.99l-104-144c-17.362 55.347-56.339 97.335-117 126-50.67 24.024-109.35 36-176 36-17.362 0-34.016-.992-50.032-2.976 27.354 21.969 54.674 43.654 82.028 64.985 25.335 15.98 56.977 23.988 94.997 23.988 45.992 0 94.005-9.993 144-29.977 47.977-18.673 90.001-43.335 126-74.02zm-248-238.01l-90.001-139c-15.343 38.693-62.682 58.004-142.02 58.004-33.981 0-66.012-2.976-95.989-9L256.992 432c61.335 34.654 122.67 51.98 184 51.98 54.674 0 99.32-10.664 134.01-31.995zM847.99 89C754.659.31 640.67-44.02 505.99-44.02c-136.67 0-248.99 32.351-336.97 97.016-98.682 72.001-148 173.98-148 306 0 100.67 34.654 192.65 104 275.99 73.985 88.654 160.97 133.66 261 135-59.351-48.685-105.02-108.67-137.02-180-30.65-68.67-45.992-142.34-45.992-221 0-101.34 28.17-181.99 84.508-242.01 56.339-59.989 134.5-90.001 234.5-90.001 58.678 0 113.67 11.02 165.01 33.024 57.331 24.662 100.98 59.315 131 104l29.977-85.005z"/></glyph><glyph id="glyph87" horiz-adv-x="292" unicode="I"><path id="path89" d="M252.99 17.008L84.01-62.008c-22.004 74.02-33.024 163.67-33.024 269.01 0 227.34 32.351 438.98 97.016 635l80.008-35.008c-27.354-83.339-40.996-181.99-40.996-296.01 0-173.3 21.969-338 65.977-493.98z"/></glyph><glyph id="glyph91" horiz-adv-x="1025" unicode="M"><path id="path93" d="M993 349c0-158-38.664-293.33-115.99-406L813.004 2.017c38.012 75.316 57.004 164.32 57.004 266.99 0 115.34-30.671 221.98-92.012 320l-108.99-55.02-54.992 79.001c72.652 79.341 163.67 152.33 273 219 70.667-149.33 105.99-310.34 105.99-482.99zM633.99 493.99L525 320c-23.329 76.677-56.324 149.33-99.014 218.01-48.642 79.313-101.99 137.65-159.99 174.98l29.99 79.001c68.003-23.981 132.69-63.326 194-118.01 61.341-54.652 109.33-114.66 144-180zM291 32L107-61.996c-38.012 128.66-57.004 266.99-57.004 414.99 0 212 50.655 373.35 151.99 484.01l54-30.019c-49.322-117.32-73.984-246.98-73.984-389 0-149.98 36.312-278.67 108.99-385.99z"/></glyph><glyph id="glyph95" horiz-adv-x="694" unicode="L"><path id="path97" d="M707 256.01L647.011-13c-45.355-15.343-99.674-22.996-163.03-22.996-67.323 0-130.64 10.984-189.99 32.988l-35.008 110.02c32.67-14.669 73.347-22.004 122.03-22.004 123.31 0 231.98 57.012 325.99 171zM253.98 27l-203-64.985c-12.65 94.642-18.992 189-18.992 282.97 0 248.67 32.67 452.7 98.009 612l64.985-40.004c-24.662-89.328-36.992-184.32-36.992-284.99 0-187.34 31.996-355.68 95.989-505z"/></glyph><glyph id="glyph99" horiz-adv-x="928" unicode="G"><path id="path101" d="M853 733.01L749 583.99c-25.994 49.351-64.998 88.015-116.98 116.02-49.351 25.313-103.35 37.984-162 37.984-21.997 0-43.342-1.672-64.006-4.989l73.984 89.007c31.351 3.997 61.341 5.981 89.999 5.981 52.015 0 102.67-7.001 152.02-21.005 58.648-17.32 102.33-41.98 130.99-73.984zM921.995 141h-48.982c-52.667-59.329-114.01-100.66-184-123.99C723.681 76.991 741 137.99 741 200.01c0 84.642-40.677 142.98-122 174.98l284 84.018 18.992-318.02zm-257.98-64.006c1.332-52.667-20.353-87.647-64.998-105-26.674-10.658-71.007-15.987-133-15.987-121.35 0-221.67 27.326-301.01 82.006-91.332 61.993-137 151-137 266.99 0 122 35.149 228.98 105.5 320.99 70.327 92.012 164.49 152.33 282.5 180.99-65.338-57.316-116.02-123.34-152.02-198-38.664-77.981-57.996-158.65-57.996-241.99 0-87.335 28.686-161.66 86.003-223 58.677-63.326 131.33-94.988 218.01-94.988 47.99 0 99.325 9.326 154 27.978z"/></glyph><glyph id="glyph103" horiz-adv-x="780" unicode="S"><path id="path105" d="M707.01 734.99L607.996 601c-52.667 62.674-123.34 93.996-212 93.996-20.664 0-37.984-1.672-51.987-4.989 26.646 25.342 53.319 50.655 79.993 75.996 24.009 17.32 56.324 25.994 97.001 25.994 65.99 0 127.98-18.992 186.01-57.004zm69.987-516.98c0-73.332-38.012-134.33-114.01-183-65.99-43.342-137.34-64.998-213.99-64.998 36.652 19.332 68.655 43.001 96.009 70.979 35.32 36 52.979 70.356 52.979 103.01 0 41.329-43.993 81.666-131.98 121.01-81.354 36-163.02 72-245.02 108-87.335 49.322-130.99 106.98-130.99 173 0 47.99 33.675 95.669 101 143.01 54.68 38.664 110.66 65.65 168.01 80.985-73.332-49.322-110.01-97.341-110.01-144 0-38.012 45.666-81.666 137-130.99 84.67-42.69 169.34-85.351 254.01-128.01 91.332-52.667 137-102.33 137-148.99zM493.987 43.99a3725.39 3725.39 0 01-84.982-54.992c-34.016-20.012-65.678-29.99-95.017-29.99-43.993 0-95.328 13.663-154 40.989-49.322 23.329-95.64 51.335-138.98 83.99l130 154c34.668-55.332 79.653-101 135.01-137 59.981-38.664 120.64-57.996 181.98-57.996 8.674 0 17.348.34 25.994.992z"/></glyph><glyph id="glyph107" horiz-adv-x="822" unicode="Z"><path id="path109" d="M730 727.99c-28.658-108-78.009-209.65-148-304.98C507.988 320.99 424.34 245.99 330.99 198l-58.989 53.008c126 148 195.33 266 207.98 353.99-72 38.664-153.66 57.996-245 57.996-50.003 0-92.324-4.649-126.99-14.003l-10.998 79.001c87.335 40.677 185.67 61.001 295 61.001 124.67 0 237.34-20.324 338-61.001zm97.001-626c-65.99-43.313-142.02-77.981-227.99-104-86.003-25.994-168.35-38.976-247.01-38.976-130.68 0-247.01 36.312-349 108.99 60.661 22.677 133.99 72.34 220 148.99 45.326-39.316 97.993-70.979 158-94.988 62.674-25.994 122.34-39.004 179.01-39.004 81.326 0 154.32 25.994 219 78.009l47.99-59.017z"/></glyph><glyph id="glyph111" horiz-adv-x="846" unicode="V"><path id="path113" d="M839.98 653c0-231.34-72.001-410.32-215.97-536.99l-15.024 112c48.685 66.65 72.993 153 72.993 258.98 0 88.654-21.969 177.66-65.977 266.99l204.98 89.009c12.685-52.654 18.992-116.01 18.992-189.99zM584.01 86.99c0-67.997-80.008-126.32-240.03-175 16.016 60.024 24.024 131.35 24.024 214.02 0 138.65-28.028 261.68-84.012 369-59.315 113.99-147.33 202.68-264.01 266l52.016 59.989c142.66-80.646 260.33-182.34 352.99-304.98 106.02-139.36 159.02-282.33 159.02-429.03z"/></glyph><glyph id="glyph115" horiz-adv-x="940" unicode="R"><path id="path117" d="M707.99 661.01c0-91.347-60.662-161.01-181.99-209.02-89.328-35.327-187.69-53.646-295.02-54.993l4.996 75.012c8.681-5.35 21.012-8.008 37.028-8.008 51.308 0 104 14.988 158 45 61.973 34.654 92.977 75.331 92.977 122 0 26.008-16.654 46.666-49.996 62.008-26.008 12.012-54 18-83.977 18-46.028 0-100.67-10.346-164.02-31.004l9.992 70.016c19.347 17.965 59.351 32.634 120.01 43.973 48.685 9.354 93.012 13.996 133.02 13.996 145.98 0 218.98-49.004 218.98-146.98zM946 5L721.99-70.012c4.677 18 7.016 36 7.016 54 0 70.69-33.662 146.02-101.02 226.03-54.638 64.666-119.3 120.33-194 167l100.03 24.98c80.646 0 165.33-47.339 253.99-141.98 77.989-84.012 130.68-169.02 158-255.01zm-690.99 9.992L85.99-70.013c-36 120.01-54 258.7-54 416.02 0 176 29.658 334 89.009 473.99l75.012-35.008C172.66 698.32 161.003 595.67 161.003 477c0-172.67 31.323-326.66 94.005-462.02z"/></glyph><glyph id="glyph119" horiz-adv-x="641" unicode="k"><path id="path121" d="M644.99 35.008l-154-80.022c-16.639 76.025-51.477 147.68-104.48 215.01-53.008 67.351-114.18 118.69-183.51 154l239.02 220 43.001-43.001-140.99-170.98c68.655-36 129.66-76.677 183-122 74.664-62.674 113.98-120.33 117.98-173zm-447.98-6.01l-154-74.011c-11.338 64.006-17.008 145.67-17.008 245.02 0 220 34.327 428.99 103.01 626.99l61.993-25.001c-28.006-87.335-42.009-204.35-42.009-351.01 0-137.99 16.016-278.64 48.019-421.99z"/></glyph><glyph id="glyph123" horiz-adv-x="576" unicode="b"><path id="path125" d="M255 752.99c-43.993-72-77.329-163.33-100.01-274-20.664-97.341-31.011-198-31.011-302 0-28.006.68-54.652 2.013-79.993L53 108.987c-12.02 87.335-18 175.66-18 265.01 0 180.68 18 331.68 54 453 77.329-12.671 132.66-37.332 166-74.012zM567.01 291c0-88.667-50.683-165.34-152.02-230-89.999-56.664-181.98-85.01-275.98-85.01a484.741 484.741 0 00-62.022 3.997v80.022c13.351-2.665 27.666-3.997 43.001-3.997 71.348 0 138.02 22.308 200.01 66.982 68.003 48.671 101.99 107.35 101.99 176 0 32.683-12.983 59.329-39.004 79.993-25.994 20.664-55.984 31.011-89.999 31.011-33.307 0-64.318-12.331-92.976-36.992L212 452.007c54.652 33.335 105.34 50.003 151.99 50.003 53.348 0 100.52-21.855 141.5-65.508 40.989-43.682 61.511-92.182 61.511-145.5z"/></glyph><glyph id="glyph127" horiz-adv-x="600" unicode="g"><path id="path129" d="M631.99 617.99c0-87.981-38.339-131.99-114.98-131.99-6.662 0-24.343 8.008-53.008 23.988 33.343 9.992 49.996 48.685 49.996 116.01 0 9.319-.319 17.681-.992 25.016h116.01c1.984-9.354 2.976-20.339 2.976-33.024zm-82.985-285.98c0-58.678-20.339-111.69-61.016-159.02-42.662-49.996-92.304-72.993-149-68.989l-17.008.992v74.02c32.032-2.693 56.339 13.323 73.028 47.977 12.65 26.681 18.992 57.686 18.992 93.012 0 50.67-29.658 89.01-89.009 115.02-47.339 19.984-99.32 28.666-155.98 25.973l159.98 55.028c50.67 0 99.32-17.68 145.98-53.008 49.359-38.02 74.02-81.674 74.02-131zm-361.99-135l-79.016-98.009c-26.681 8.681-46.985 27.673-61.016 57.012-12.65 25.335-18.992 53.327-18.992 83.977 0 47.339 12.331 86.351 36.992 117 26.681 34.016 62.682 50.351 108 49.004h8.008c-20.658-39.331-31.004-78.981-31.004-118.98 0-38.693 12.33-68.67 37.028-90.001zM549.005-207c0-32.67-9.992-62.008-30.012-87.981-21.331-28.028-47.658-41.67-78.981-41.032h-13.004c29.977 26.681 45 55.028 45 85.005 0 27.992-27.673 59.67-83.02 94.997a19476.85 19476.85 0 00-151.97 93.012c-55.347 39.331-83.02 78.662-83.02 117.99 0 13.996 14.35 43.016 43.016 87.024 19.311 28.666 38.658 57.331 58.004 85.997l36.992-18c-18-26.008-27-54-27-84.012 0-36.674 23.988-72.674 72.001-108 40.004-23.988 80.008-48.012 119.98-72.001 8.681-1.984 20.693-6.661 36-13.996 37.347-23.988 56.02-70.335 56.02-139zm-158.99-104.99c-24.697-34.016-62.682-51.024-114.02-51.024-72.001 0-150.66 25.335-235.99 76.004L138.014-122c16.654-51.343 42.307-95.351 76.997-131.99 40.642-42.024 85.324-63 133.97-63 13.358 0 27 1.665 41.032 4.996z"/></glyph><glyph id="glyph131" horiz-adv-x="404" unicode="f"><path id="path133" d="M420.98 489.02L334.983 348c-3.33 34.689-32.988 52.016-88.973 52.016-11.339 0-22.677-.992-34.016-3.012l18 80.008c38.658 22.004 76.323 32.988 113 32.988 32.67 0 58.678-6.98 77.989-20.976zM414 807.99c-15.343-73.985-31.677-117-49.004-128.98-56.658 4.642-101.66 14.988-135 31.004-44.008-58.678-66.012-146.02-66.012-262.03 0-138.65 24.343-282.33 73.028-430.98L82.982-63.004c-30.65 77.989-45.992 167.32-45.992 268.02 0 93.969 12.012 193.64 36 298.99 24.024 102.01 56.02 197.33 96.024 285.98 53.327 25.335 104.32 38.02 152.97 38.02 38.693 0 69.343-6.661 92.02-20.02z"/></glyph><glyph id="glyph135" horiz-adv-x="274" unicode="l"><path id="path137" d="M236.01 792c-39.345-109.33-59.017-241.99-59.017-397.98 0-130.02 17.66-255 53.008-375.02-36.68-36.652-93.656-54.992-171.01-54.992-3.997 48.671-5.981 108.34-5.981 179.01 0 319.32 40.649 547.99 122 685.98l61-36.992z"/></glyph><glyph id="glyph139" horiz-adv-x="617" unicode="h"><path id="path141" d="M577.99 296.01c0-104-30.331-212.67-90.993-326.02L413.012-4.994c18 17.327 32.315 45.319 42.981 84.012 8.681 32.634 13.004 64.666 13.004 95.989 0 32.67-5.67 62.646-17.008 90.001-3.33 7.335-18.319 35.008-45 82.985-88.654-11.976-148-26.327-177.98-42.981l-5.988 79.973c43.973 30.012 91.985 54.355 143.97 73.028 57.367 20.658 109.67 31.004 157 31.004 36-52.016 54-116.36 54-193zm-324 482C189.997 626 158.001 464.67 158.001 293.99c0-100.67 17.681-194.32 53.008-280.99l-135-61.016c-27.354 79.335-40.996 173.02-40.996 281.02 0 206.65 52.654 400.33 158 581l60.981-36z"/></glyph><glyph id="glyph143" horiz-adv-x="635" unicode="d"><path id="path145" d="M605 533c0-137.99-14.003-270.65-41.981-397.98l-86.003-13.011c18 62.674 26.986 131.33 26.986 205.99 0 154.69-31.323 298.34-93.996 431l147 79.993c32.003-77.981 47.99-180 47.99-306zM540.994 78.01l-11.99-73.02C466.33-14.994 402.354-25 337.014-25c-79.341 0-148.68 21.005-208 63.014-66.67 46.658-100.01 108.31-100.01 184.99 0 71.319 37.332 135.66 112 193.01 69.335 52.667 140.99 79.001 215.01 79.001 27.326 0 53.319-4.025 78.009-12.019v-66.982c-18 2.665-35.348 3.997-52.015 3.997-54 0-101.34-17.66-141.99-53.008-42.009-37.332-63.014-82.346-63.014-135.01 0-56.664 27.014-99.325 81.014-127.98 42.661-23.33 94.988-35.008 156.98-35.008 44.022 0 86.003 3.005 126 9.014z"/></glyph><glyph id="glyph147" horiz-adv-x="900" unicode="m"><path id="path149" d="M847 269.01c0-109.35-23.988-205.69-72.001-288.99L702.006-7.011c22.004 63.355 32.988 127.35 32.988 192.01 0 78.662-21.331 135.32-63.993 170.01l-98.009 5.988-24.98 67.004c37.985 28.666 123.98 59.351 257.99 91.985 27.319-73.312 40.996-156.97 40.996-250.97zm-320.99-13.004c0-105.34-18.992-201.33-57.012-288L413.013-.99c13.996 39.331 20.976 80.008 20.976 122 0 93.331-25.335 175.32-76.004 245.98l-128.98-5.988-12.012 61.016c49.996 49.323 127.67 85.997 233.01 109.98 50.67-77.99 76.004-170.01 76.004-275.99zm-302.99-157c0-52.654-2.02-98.328-6.024-136.98l-166 48.969c35.327 58.678 53.008 132.34 53.008 221.03 0 88.654-13.323 172.31-40.004 250.97l61.016 25.016c65.34-81.355 98.01-217.67 98.01-409.01z"/></glyph><glyph id="glyph151" horiz-adv-x="647" unicode="e"><path id="path153" d="M594 333c0-52.016-26.327-93.686-79.016-125.01-45.319-26.646-95.67-39.331-150.98-37.985h-34.016l-42.981 85.997c15.307-11.339 33.981-17.008 55.985-17.008 24.662 0 47.658 7.016 68.989 21.012 24.024 15.307 36 34.973 36 58.996 0 24.662-10.134 45.992-30.473 63.993-20.339 18-43.193 28.984-68.528 32.988 4.004 17.362 22.004 34.335 54 51.024 28.666 14.669 53.363 22.004 74.02 22.004 33.343 0 62.008-18.354 85.997-55.028 20.658-32.67 31.004-66.331 31.004-100.98zm-5.988-273.01c-55.347-59.989-132.7-90.001-232.02-90.001-205.34 0-307.99 85.005-307.99 255.01 0 70.654 35.327 133.34 105.98 188.01 66.012 50.67 135 76.004 207 76.004-109.31-84.012-163.99-168.02-163.99-252 0-50.67 17.008-96.024 50.989-136.03 36-41.988 79.016-63 129.01-63 65.339 0 129.33 34.016 191.98 102.01l19.028-80.008z"/></glyph><glyph id="glyph155" horiz-adv-x="656" unicode="a"><path id="path157" d="M660.02-8.008c-22.004-8.008-43.016-11.976-63-11.976-68.032 0-112 30.97-132.02 92.977-10.665 63.993-21.331 128.02-31.996 192.01-17.327 78.662-55.312 131-113.99 157l131 54.993c51.343-19.347 85.678-70.654 103-153.99 9.319-72 18.673-144 27.992-216 12.012-74.02 38.339-112.36 79.016-115.02zm-290.02 491c-69.981-16.654-155.66-67.642-257-153L43.019 410c25.973 28.666 59.138 51.84 99.497 69.485 40.323 17.681 79.831 26.504 118.49 26.504 36.674 0 72.993-7.653 108.99-22.996zm45.992-441c-18-19.984-49.996-34.973-95.989-45-36-7.972-72.32-11.976-108.99-11.976-36 0-71.682 13.996-107.01 41.988-37.985 30.012-56.339 62.682-54.993 98.01 1.347 46.665 31.323 87.98 90.001 123.98 52.654 32.67 103.68 49.003 153 49.003 31.996 0 63.993-5.67 95.989-17.008l-1.984-61.973c-8.008 1.984-17.327 2.977-28.028 2.977-31.323 0-63-6.662-94.997-19.984-39.331-17.327-59.315-39.685-59.99-67.004-.673-21.331 7.016-39.508 22.997-54.496 16.016-14.989 34.335-22.5 54.993-22.5 32.67 0 70.335 17.007 113 50.988l22.004-67.004z"/></glyph><glyph id="glyph159" horiz-adv-x="590" unicode="c"><path id="path161" d="M546.98 428L437 329.991c-12.012 25.335-30.012 46.347-54 63-23.988 16.689-49.678 25.016-76.997 25.016-8.008 0-15.662-.673-22.996-2.02l80.008 79.016c12.65 2.658 25.335 4.004 37.985 4.004 59.351 0 108-23.67 145.98-71.008zm6.024-356c-22.677-27.992-62.682-50.67-120.01-67.997-48.012-13.996-94.678-21.012-140-21.012-73.347 0-133.34 18.992-180 57.012-49.996 40.678-75.012 96.662-75.012 167.99 0 76.004 26.008 140.67 78.024 194 45.992 47.339 108 82.666 185.99 106.02-32.67-32.67-60.662-72.355-84.012-119.02-25.973-51.308-38.977-97.654-38.977-138.97 0-38.693 17.327-78.024 51.98-118.03 34.69-40.004 71.328-59.989 110.02-59.989 86.67 0 149.32 30.65 187.97 91.985l24.025-91.985z"/></glyph><glyph id="glyph163" horiz-adv-x="616" unicode="o"><path id="path165" d="M591.98 256.01c0-66.686-28.984-126-86.989-178.02-51.343-46.666-112-77.316-181.99-91.985 34.654 26.646 63.319 59.989 85.997 99.993 23.988 42.662 36 85.005 36 126.99 0 45.355-9.354 91.347-27.992 138.01-24.024 59.315-55.347 86.989-94.005 82.985l72.993 55.028c61.335-5.35 109.98-30.366 145.98-75.012 33.343-42.662 49.996-95.351 49.996-158zM323 59.99L248.98-8.007C190.976-9.991 142.01 11.659 102 57.013c-37.347 42.662-56.02 93.331-56.02 151.97 0 82.028 25.016 149 75.012 201.01 48.012 50.67 113 81.001 194.99 90.993-48.65-60.662-78.981-101.98-90.993-123.98-21.331-41.351-31.996-92.02-31.996-152.01 0-44.008 7.654-81.001 22.996-111.01 19.347-37.311 48.012-55.985 85.997-55.985 6.662 0 13.677.673 21.012 1.984z"/></glyph><glyph id="glyph167" horiz-adv-x="617" unicode="n"><path id="path169" d="M562.01 297c0-116.01-20.339-226.35-61.016-331.02L432.997-9.996c17.327 37.985 26.008 85.997 26.008 144 0 80.008-20.658 153.32-62.008 220.01-42.662 8.646-80.008 12.969-112 12.969-24.662 0-42.662-2.303-54-6.98l-5.988 62.008c91.985 65.977 180.32 96.98 265.01 92.977l22.996-.993c32.67-58.678 49.004-131 49.004-216.99zm-343-161.01c0-72.674-4.358-129.33-13.004-170.01l-153 55.028c38.658 107.33 58.004 214.34 58.004 320.99 0 63.319-7.016 112.32-21.012 147.01l72.993 24.98c37.347-127.31 56.02-253.31 56.02-378z"/></glyph><glyph id="glyph171" horiz-adv-x="261" unicode="i"><path id="path173" d="M267.98 758.98c0-20.658-6.662-38.977-19.984-54.993-14.669-18-31.996-27-51.981-27-15.343 0-27.673 5.846-37.028 17.504-9.319 11.658-13.996 25.158-13.996 40.5 0 20.02 7.016 38.516 21.012 55.489 13.996 17.008 31.004 25.512 50.989 25.512 15.343 0 27.673-5.67 36.992-17.008 9.354-11.303 13.996-24.662 13.996-40.004zM237.011 48.01L90.001-50.991C61.335-4.999 46.985 67.679 46.985 166.999c0 113.99 14.35 233.68 43.016 359.01l67.997-12.012c-8.008-38.658-12.012-77.67-12.012-117 0-59.315 8.008-119.66 24.024-180.99 15.98-64.666 38.339-120.69 67.004-167.99z"/></glyph><glyph id="glyph175" horiz-adv-x="456" unicode="r"><path id="path177" d="M481.01 485.01L401.002 338c-31.996 27.992-71.008 41.988-117 41.988-33.981 0-66.65-9.992-98.009-29.977l-5.988 79.973c86.67 55.347 162 83.02 225.99 83.02 32.67 0 57.686-9.354 75.012-27.992zM217 44.01L57.02-41.987c-17.362 72.001-26.008 155.3-26.008 249.98 0 116.01 17.008 218.66 50.989 308.02l61.016-25.016c-15.343-39.331-22.996-88.654-22.996-148 0-108 32.315-207.68 96.981-298.99z"/></glyph><glyph id="glyph179" horiz-adv-x="612" unicode="z"><path id="path181" d="M545.99 409.01C520.655 351.006 428.67 258.99 270 133.02l-67.997 36.992c65.339 41.315 112.68 106.97 141.98 196.97-54 16.016-135.99 24.024-245.98 24.024l-24.024 67.997c62.682 15.98 131.03 23.988 205.02 23.988 114.66 0 203.67-24.662 266.99-73.985zM607.006 72c-36-31.996-84.686-57.331-146.02-76.004-54.638-15.98-109.31-23.988-163.99-23.988-95.989 0-194.99 22.996-297 68.989l153 99.001c83.339-44.682 166-67.004 248-67.004 65.339 0 117.67 18 157 54L607 72.001z"/></glyph><glyph id="glyph183" horiz-adv-x="622" unicode="q"><path id="path185" d="M586 480.02C545.996 349.34 526.011 204.67 526.011 46c0-115.34 13.996-220.01 41.988-313.98l-153.99-111.01c-14.669 63.993-22.004 145.98-22.004 245.98 0 225.36 46.347 440.01 139 644l54.993-30.969zm-122.99 0l-36.992-68.032c-23.351 10.665-46.028 16.016-68.032 16.016-49.996 0-91.666-26.681-124.97-80.008-29.339-45.992-44.008-95.989-44.008-149.99 0-37.347 10.843-67.997 32.492-91.985 21.685-24.024 51.166-36 88.512-36 19.311 0 33.662 3.65 42.981 10.984V-4.992C325.001-14.984 297.681-19.98 271-19.98c-63.993 0-118.98 24.166-164.98 72.497-46.028 48.331-69.024 104.81-69.024 169.48 0 74.694 28.347 141.66 85.005 201.01 56.658 59.315 122.35 89.009 197.01 89.009 52.654 0 100.67-10.665 144-31.996z"/></glyph><glyph id="glyph187" horiz-adv-x="510" unicode="s"><path id="path189" d="M435.02 462.02l-61.016-89.009c-16.016 36.674-54.674 59.315-116.01 67.997l43.016 49.004c21.331 2.658 36.992 4.004 46.985 4.004 23.351 0 52.335-10.665 87.024-31.996zM472.012 145c0-44.008-23.67-80.327-71.008-108.99-37.347-22.677-81.001-36.992-131-43.016 49.323 36.674 73.985 75.367 73.985 116.01 0 35.327-24.662 65.339-73.985 90.001-45.992 20.02-91.985 40.004-138.01 59.989-49.323 26.008-73.985 58.678-73.985 98.009 0 36.674 17.327 69.024 51.981 97.016 32.67 26.646 68.032 40.004 106.02 40.004 12.012 0 23.988-1.346 36-4.004-36.674-34.016-54.993-63.674-54.993-89.009 0-19.347 23.67-40.323 70.973-63 71.363-33.343 115.34-56.339 132.02-68.989 47.977-34.016 72.001-75.331 72.001-124.02zm-207.99-85.005c-13.358-12.65-26.681-25.654-40.004-38.977C204.671 3.656 189.329-4.99 178.026-4.99c-38.02 0-97.335 25.654-178.02 76.997l91.985 91.985c49.359-61.335 106.69-95.989 172.03-104z"/></glyph><glyph id="glyph191" horiz-adv-x="586" unicode="u"><path id="path193" d="M553.01 464.99c-46.666-78.662-70.016-176.67-70.016-293.99 0-47.339 4.996-94.678 15.024-142.02L431.014-1.989c-37.347 87.981-56.02 187.66-56.02 298.99 0 85.324 14.35 163.67 43.016 234.99l135-67.004zM363.02 84.01C305.689 39.328 213.67 6.659 86.99-13.999c-24.662 66.65-36.992 147.01-36.992 240.98 0 106.69 20.658 206.36 62.008 299.02l54.993-43.016c-4.004-33.981-5.988-69.981-5.988-108 0-103.32 16.335-179.65 49.004-229.01l128.98 12.012 24.024-73.985z"/></glyph><glyph id="glyph195" horiz-adv-x="599" unicode="p"><path id="path197" d="M576 258.98c0-59.315-36.992-116.65-111.01-171.99C395.682 34.336 330.66 8.009 270 8.009c-18.673 0-40.004 1.984-63.993 5.988l-6.024 72.993c20.693-5.315 40.678-7.972 60.024-7.972 50.67 0 92.658 24.307 126 72.993 29.34 44.008 43.973 92.658 43.973 145.98 0 31.323-12.65 58.855-37.985 82.489-25.335 23.67-53.682 35.504-85.005 35.504-30.65 0-64.312-9.32-100.98-27.992L212.99 468c45.993 27.992 90.675 41.988 134.01 41.988 60.663 0 113.99-26.504 160.02-79.477 45.993-53.008 68.99-110.2 68.99-171.53zM199.98-267.98L46.98-342C36.315-266.669 31-172.66 31-59.99c0 212 23.67 408.33 71.008 588.97L170.005 504c-18.673-91.347-27.992-200.34-27.992-327.01 0-162.64 19.311-311 57.969-444.97z"/></glyph><glyph id="glyph199" horiz-adv-x="447" unicode="t"><path id="path201" d="M436.01 464.99l-36.992-91.985-103 32.988 4.996 65.02 135-6.024zm-49.996-349.98C308.663 37.659 233.014-5 158.994-13.01 136.99 50.983 126.006 130 126.006 224c0 64.666 4.996 125.33 14.988 181.99l-133.97-4.004-7.016 75.012 158.99 24.98c16.69 66.686 37.347 140.35 62.008 221.03L294 697.992c-33.98-95.989-50.989-201.33-50.989-316 0-93.331 9-174.01 27-242.01l91.985 36.992 24.024-61.973z"/></glyph><glyph id="glyph203" horiz-adv-x="516" unicode="v"><path id="path205" d="M498.02 482.99C485.335 405.001 444.338 306.99 375 189l-72.993 72.993c33.343 26.681 80.327 110.66 140.99 252l55.028-31.004zM351.01 133.01l-104-178.02c-56.02 70.016-103 152.33-140.99 247.01C68 296.678 45.323 388.34 37.988 477l55.028 42.981c19.984-74.658 52.335-146.3 96.981-214.97 48.012-74.02 101.66-131.35 161.01-171.99z"/></glyph><glyph id="glyph207" horiz-adv-x="647" unicode="è"><path id="path209" d="M594 333c0-52.016-26.327-93.686-79.016-125.01-45.992-26.646-96.308-39.331-150.98-37.985h-34.016l-42.981 85.997c15.307-11.339 33.981-17.008 55.985-17.008 24.662 0 47.658 7.016 68.989 21.012 24.024 15.307 36 34.973 36 58.996 0 24.662-10.134 45.992-30.473 63.993-20.339 18-43.193 28.984-68.528 32.988 4.004 17.362 22.004 34.335 54 51.024 28.666 14.669 53.363 22.004 74.02 22.004 33.343 0 62.008-18.354 85.997-55.028 20.658-32.67 31.004-66.331 31.004-100.98zm-5.988-273.01c-55.347-59.989-132.7-90.001-232.02-90.001-205.34 0-307.99 85.005-307.99 255.01 0 70.654 35.327 133.34 105.98 188.01 66.012 50.67 135 76.004 207 76.004-109.31-84.012-163.99-168.02-163.99-252 0-50.67 17.008-96.024 50.989-136.03 36-41.988 79.016-63 129.01-63 65.339 0 129.33 34.016 191.98 102.01l19.028-80.008zM184.992 703c52.016-11.339 102.69-28.666 152.01-51.981 55.985-26.681 99.674-57.367 131-92.02-8.681 50.67-32.67 97.654-72.001 140.99-36.674 41.351-80.008 71.682-130 91.028L185 703.001z"/></glyph><glyph id="glyph211" horiz-adv-x="656" unicode="à"><path id="path213" d="M660.02-8.008c-22.004-8.008-43.016-11.976-63-11.976-68.032 0-112 30.97-132.02 92.977-10.665 63.993-21.331 128.02-31.996 192.01-17.327 78.662-55.312 131-113.99 157l131 54.993c51.343-19.347 85.678-70.654 103-153.99 9.319-72 18.673-144 27.992-216 12.012-74.02 38.339-112.36 79.016-115.02zm-290.02 491c-69.981-16.654-155.66-67.642-257-153L43.019 410c25.973 28.666 59.138 51.84 99.497 69.485 40.323 17.681 79.831 26.504 118.49 26.504 36.674 0 72.993-7.653 108.99-22.996zm45.992-441c-18-19.984-49.996-34.973-95.989-45-36-7.972-72.32-11.976-108.99-11.976-36 0-71.682 13.996-107.01 41.988-37.985 30.012-56.339 62.682-54.993 98.01 1.347 46.665 31.323 87.98 90.001 123.98 52.654 32.67 103.68 49.003 153 49.003 31.996 0 63.993-5.67 95.989-17.008l-1.984-61.973c-8.008 1.984-17.327 2.977-28.028 2.977-31.323 0-63-6.662-94.997-19.984-39.331-17.327-59.315-39.685-59.99-67.004-.673-21.331 7.016-39.508 22.997-54.496 16.016-14.989 34.335-22.5 54.993-22.5 32.67 0 70.335 17.007 113 50.988l22.004-67.004zm-254.98 661.01c51.981-11.339 102.65-28.666 151.97-51.98 56.02-26.682 99.674-57.368 131.03-92.02-8.681 50.67-32.67 97.653-72.001 140.99-36.674 41.35-80.008 71.681-130 91.027l-81.001-88.016z"/></glyph><glyph id="glyph215" horiz-adv-x="647" unicode="é"><path id="path217" d="M594 333c0-52.016-26.327-93.686-79.016-125.01-45.992-26.646-96.308-39.331-150.98-37.985h-34.016l-42.981 85.997c15.307-11.339 33.981-17.008 55.985-17.008 24.662 0 47.658 7.016 68.989 21.012 24.024 15.307 36 34.973 36 58.996 0 24.662-10.134 45.992-30.473 63.993-20.339 18-43.193 28.984-68.528 32.988 4.004 17.362 22.004 34.335 54 51.024 28.666 14.669 53.363 22.004 74.02 22.004 33.343 0 62.008-18.354 85.997-55.028 20.658-32.67 31.004-66.331 31.004-100.98zm-5.988-273.01c-55.347-59.989-132.7-90.001-232.02-90.001-205.34 0-307.99 85.005-307.99 255.01 0 70.654 35.327 133.34 105.98 188.01 66.012 50.67 135 76.004 207 76.004-109.31-84.012-163.99-168.02-163.99-252 0-50.67 17.008-96.024 50.989-136.03 36-41.988 79.016-63 129.01-63 65.339 0 129.33 34.016 191.98 102.01l19.028-80.008zM468.992 676c-53.327-1.347-106.34-9.319-158.99-23.988-59.99-16.689-108.36-39.331-144.99-67.997 17.327 48.65 49.004 90.993 94.997 126.99 43.335 33.981 91.312 55.985 144 65.977l64.985-100.98z"/></glyph><glyph id="glyph219" horiz-adv-x="586" unicode="û"><path id="path221" d="M553.01 464.99c-46.666-78.662-70.016-176.67-70.016-293.99 0-47.339 4.996-94.678 15.024-142.02L431.014-1.989c-37.347 87.981-56.02 187.66-56.02 298.99 0 85.324 14.35 163.67 43.016 234.99l135-67.004zM363.02 84.01C305.689 39.328 213.67 6.659 86.99-13.999c-24.662 66.65-36.992 147.01-36.992 240.98 0 106.69 20.658 206.36 62.008 299.02l54.993-43.016c-4.004-33.981-5.988-69.981-5.988-108 0-103.32 16.335-179.65 49.004-229.01l128.98 12.012 24.024-73.985zm117 527.99c-26.681-16.689-53.363-25.016-80.008-25.016-26.008 0-51.52 7.335-76.501 22.004-25.016 14.669-45.178 33.343-60.52 56.02-51.308-36-84.331-66.012-99.001-90.001l-34.973 25.973 165.97 175c61.335-77.316 123.02-131.99 185.03-163.99z"/></glyph></font>
</defs>
</svg>
