<svg xmlns="http://www.w3.org/2000/svg" id="svg2" viewBox="0 0 155.63 136.58" version="1.1"><defs id="defs4"><style id="style179" type="text/css">@font-face{font-family:&quot;Arial&quot;;src:url(#FontID0) format(svg)}</style><font id="FontID0" horiz-origin-x="0" vert-adv-y="0" vert-origin-x="0" horiz-adv-x="0" horiz-origin-y="0" vert-origin-y="0" font-weight="400,700"><font-face id="font-face7" font-family="Arial"/><glyph id="glyph13" horiz-adv-x="277"/><glyph id="glyph15" horiz-adv-x="556" unicode="3"><path id="path17" d="M37.684 190.01l132.63 15.997c4.337-33.824 15.678-59.69 34.341-77.517 18.504-17.986 41.027-26.98 67.33-26.98 28.333 0 52.169 10.824 71.508 32.312 19.339 21.528 29.009 50.338 29.009 86.828 0 34.501-9.152 61.838-27.855 82.014-18.464 20.334-41.146 30.322-67.807 30.322-17.509 0-38.52-3.303-62.992-10.147l15.161 111.66c37.167-.836 65.499 7.163 84.998 24.154 19.499 17.191 29.328 39.833 29.328 68.166 0 24.194-7.163 43.335-21.488 57.66-14.365 14.365-33.506 21.528-57.183 21.528-23.478 0-43.494-8.158-60.008-24.512-16.673-16.156-26.82-39.992-30.322-71.15l-126.5 21.329c8.834 43.335 22.006 77.994 39.833 103.82 17.668 25.826 42.499 46.16 74.174 61.003 31.834 14.843 67.33 22.324 106.64 22.324 67.529 0 121.53-21.488 162.2-64.505 33.506-35.137 50.338-74.811 50.338-119.14 0-62.833-34.341-113.01-103.02-150.34 40.987-8.834 73.657-28.492 98.329-59.172 24.512-30.482 36.848-67.489 36.848-110.82 0-62.833-23-116.36-68.842-160.68-45.842-44.17-102.98-66.335-171.35-66.335-64.823 0-118.46 18.663-161.16 55.83-42.658 37.366-67.33 86.033-74.134 146.36z"/></glyph><glyph id="glyph19" horiz-adv-x="556" unicode="2"><path id="path21" d="M505.85 127.5V0H24.83c5.332 48.15 20.852 93.832 46.996 137.01 26.025 43.176 77.517 100.32 154.16 171.67 61.998 57.501 99.841 96.657 113.85 117.15 18.822 28.333 28.333 56.347 28.333 84.003 0 30.521-8.158 53.999-24.672 70.513-16.474 16.474-39.156 24.672-68.166 24.672-28.651 0-51.333-8.675-68.325-25.866-16.832-17.31-26.661-46.001-29.328-85.993l-136.69 13.689c8.197 75.488 33.665 129.65 76.681 162.67 43.016 32.829 96.657 49.304 161.16 49.304 70.672 0 126.18-19.14 166.49-57.143 40.35-38.162 60.525-85.515 60.525-142.18 0-32.153-5.85-62.833-17.35-92.002-11.5-29.168-29.845-59.65-54.835-91.484-16.673-21.17-46.677-51.691-89.813-91.365-43.335-39.634-70.872-66.136-82.372-79.148s-20.971-25.666-28.134-38.002h272.5z"/></glyph><glyph id="glyph23" horiz-adv-x="556" unicode="1"><path id="path25" d="M393.51 0H256.34v517.15c-50.179-46.996-109.19-81.655-177.2-103.98v124.51c35.694 11.659 74.692 33.824 116.67 66.494 42.022 32.829 70.832 70.991 86.351 114.64h111.34V-.006z"/></glyph><glyph id="glyph27" horiz-adv-x="277" unicode="I"><path id="path29" d="M68.325 0v715.84h144.53V0H68.325z"/></glyph><glyph id="glyph31" horiz-adv-x="722" unicode="H"><path id="path33" d="M79.984 0v715.84h94.867V421.85h371.99v293.99h94.827V0h-94.827v337.33h-371.99V0H79.984z"/></glyph><glyph id="glyph35" horiz-adv-x="832" unicode="M"><path id="path37" d="M74.174 0v715.84h142.66L386.154 209c15.678-47.155 27.179-82.491 34.182-106.01 8.158 26.025 20.852 64.345 38.162 114.84l171.35 498.01h127.5V0h-91.325v599.16L458.023 0h-85.515l-207 609.35V0H74.183z"/></glyph><glyph id="glyph39" horiz-adv-x="667" unicode="E"><path id="path41" d="M79.148 0v715.84h517.51v-84.52h-422.84V412.18h396.02v-84.003h-396.02V84.487h439.52V.006H79.158z"/></glyph><glyph id="glyph43" horiz-adv-x="777" unicode="O"><path id="path45" d="M48.349 348.67c0 118.82 31.834 211.82 95.663 278.99 63.828 67.171 146.16 100.84 247.16 100.84 66.017 0 125.67-15.838 178.67-47.314 53.004-31.675 93.514-75.686 121.33-132.19 27.815-56.307 41.663-120.49 41.663-192 0-72.662-14.485-137.64-43.812-194.83-29.367-57.342-70.832-100.68-124.51-130.16-53.84-29.487-111.66-44.17-173.86-44.17-67.489 0-127.66 16.196-180.66 48.826-53.164 32.511-93.315 77-120.65 133.35-27.338 56.188-40.987 115.84-40.987 178.67zm97.652-1.512c0-86.311 23.16-154.16 69.518-203.82 46.478-49.662 104.66-74.493 174.65-74.493 71.309 0 130 24.99 176 75.169 46.001 50.139 69.16 121.33 69.16 213.49 0 58.178-9.988 108.99-29.686 152.49-19.658 43.494-48.468 77.159-86.311 101.19-38.002 23.836-80.501 35.814-127.66 35.814-67.171 0-124.83-23-173.18-69.16-48.349-46.001-72.503-123-72.503-230.68z"/></glyph><glyph id="glyph47" horiz-adv-x="666" unicode="B"><path id="path49" d="M73.154 0v715.83h268.69c54.675 0 98.462-7.354 131.51-21.679 33.139-14.468 58.972-36.816 77.643-66.995 18.671-29.988 28.173-61.503 28.173-94.499 0-30.513-8.356-59.307-25.022-86.334-16.474-26.979-41.639-48.849-75.16-65.514 43.358-12.654 76.497-34.333 99.847-64.798 23.35-30.704 35.001-66.851 35.001-108.54 0-33.473-7.163-64.655-21.345-93.496-14.182-28.794-31.659-50.998-52.478-66.66-20.867-15.662-47.035-27.314-78.359-35.336C430.329 4.005 391.842-.007 346.144-.007H73.154zm94.833 415h154.86c41.83 0 72.008 2.817 90.345 8.309 23.971 7.21 42.164 19.005 54.293 35.67 12.176 16.665 18.336 37.532 18.336 62.506 0 23.684-5.635 44.695-16.999 62.697-11.508 18.145-27.839 30.465-48.802 37.15-21.201 6.685-57.54 9.98-109.02 9.98H167.99v-216.31zm0-330.48h178.16c30.704 0 52.192 1.146 64.512 3.295 21.822 4.01 40.015 10.505 54.675 19.673 14.66 9.025 26.645 22.347 36.148 39.68 9.36 17.478 14.182 37.485 14.182 60.31 0 26.693-6.828 49.852-20.485 69.669-13.657 19.673-32.662 33.52-57.015 41.543-24.162 7.831-59.163 11.794-104.67 11.794h-165.5V84.524z"/></glyph><glyph id="glyph51" horiz-adv-x="666" unicode="A"><path id="path53" d="M-1.48 0l275 715.83h102L668.52 0H560.51l-83.516 216.84h-299.3L99.192 0H-1.468zM205 294h242.86l-74.874 198.17c-22.634 60.166-39.633 109.68-50.664 148.5-9.169-45.984-21.965-91.491-38.63-136.85L204.998 294z"/></glyph><glyph id="glyph55" horiz-adv-x="556" unicode="L"><path id="path57" d="M73.18 0v715.84h94.827V84.48h352.49V-.001H73.187z"/></glyph><glyph id="glyph59" horiz-adv-x="722" unicode="N"><path id="path61" d="M76.164 0v715.84h97.175l376-562v562h90.808V0h-97.135l-376 562.52V0H76.164z"/></glyph><glyph id="glyph63" horiz-adv-x="777" unicode="G"><path id="path65" d="M412.18 280.82v83.844l303.14.517v-265.5c-46.478-37.167-94.469-65.022-143.97-83.844-49.503-18.663-100.36-28.014-152.37-28.014-70.314 0-134.3 15.002-191.64 45.165-57.501 30.004-100.84 73.697-130.16 130.52-29.328 56.984-44.011 120.65-44.011 191.01 0 69.638 14.684 134.66 43.852 194.99 28.969 60.486 70.991 105.33 125.67 134.66 54.636 29.168 117.67 43.852 188.98 43.852 51.691 0 98.488-8.356 140.35-25.189 41.822-16.673 74.652-39.992 98.329-69.996 23.836-30.004 41.822-69 54.318-117.15l-85.476-23.518c-10.864 36.49-24.194 65.181-40.032 85.993-15.997 20.852-38.798 37.525-68.484 50.02-29.487 12.495-62.515 18.822-98.488 18.822-43.335 0-80.86-6.645-112.34-19.817-31.675-13.172-57.024-30.52-76.522-52.01-19.3-21.488-34.302-45.006-45.165-70.832-18.146-44.17-27.338-92.16-27.338-144.01 0-63.828 11.023-117.15 33.028-160.17 22.006-42.976 53.999-74.81 95.981-95.663 42.022-20.812 86.51-31.317 133.66-31.317 41.186 0 81.178 7.999 120.18 23.836 39.156 15.64 68.683 32.471 88.818 50.497v133.31H412.18z"/></glyph><glyph id="glyph67" horiz-adv-x="722" unicode="C"><path id="path69" d="M587.82 251.02l94.827-23.995c-19.817-77.676-55.631-137.01-107.16-178.03-51.651-40.828-114.64-61.162-189.34-61.162-77.159 0-139.83 15.678-188.14 46.996-48.349 31.516-85.157 77-110.35 136.53-25.149 59.65-37.843 123.64-37.843 192 0 74.493 14.166 139.48 42.698 194.99 28.492 55.511 68.961 97.652 121.65 126.5 52.487 28.81 110.35 43.176 173.5 43.176 71.667 0 131.83-18.185 180.66-54.676 48.826-36.49 82.849-87.664 101.99-153.84l-93.156-22.006c-16.673 52.169-40.668 90.012-72.344 113.85-31.476 23.836-71.15 35.655-119.14 35.655-54.994 0-100.84-13.172-137.84-39.514-37.008-26.462-62.992-61.799-77.835-106.33-15.002-44.33-22.483-90.171-22.483-137.33 0-61.003 8.834-114.01 26.502-159.49 17.827-45.324 45.324-79.347 82.809-101.83 37.525-22.523 77.994-33.665 121.69-33.665 53.004 0 97.811 15.32 134.66 45.842 36.809 30.641 61.679 76.164 74.652 136.33z"/></glyph><glyph id="glyph71" horiz-adv-x="722" unicode="R"><path id="path73" d="M78.671 0v715.84h317.31c63.868 0 112.34-6.486 145.52-19.339 33.148-12.813 59.65-35.495 79.666-68.006 19.817-32.67 29.646-68.643 29.646-108 0-50.816-16.315-93.474-49.304-128.33-32.829-34.819-83.685-56.984-152.33-66.494 25.149-12.018 44.13-23.836 57.143-35.655 27.656-25.348 53.84-57.183 78.671-95.185L709.503.001h-119.18l-94.668 148.98c-27.656 42.857-50.497 75.846-68.484 98.528-17.827 22.801-33.864 38.838-48.03 47.831-14.166 9.152-28.492 15.48-43.136 19.14-10.864 2.189-28.333 3.343-52.845 3.343H173.33V-.007H78.662zm94.668 399.84h203.66c43.176 0 77.159 4.497 101.51 13.49 24.473 8.993 42.976 23.319 55.67 43.016 12.654 19.658 18.981 40.987 18.981 64.146 0 33.824-12.177 61.679-36.848 83.526-24.473 21.807-63.311 32.63-116.47 32.63h-226.5v-236.81z"/></glyph><glyph id="glyph75" horiz-adv-x="610" unicode="T"><path id="path77" d="M259.34 0v631.32H23.5v84.519h567.33V631.32H353.99V0h-94.642z"/></glyph><glyph id="glyph79" horiz-adv-x="667" unicode="P"><path id="path81" d="M77.159 0v715.84h270c47.513 0 83.844-2.348 108.83-6.844 35.177-5.81 64.664-16.992 88.5-33.506 23.677-16.315 42.857-39.475 57.342-69.001 14.485-29.646 21.687-62.157 21.687-97.652 0-60.844-19.339-112.5-58.018-154.68-38.838-41.982-108.83-63.152-209.99-63.152H171.83V-.005H77.162zm94.668 375.49h185.16c61.202 0 104.7 11.341 130.36 34.182 25.666 22.841 38.48 54.835 38.48 96.18 0 29.964-7.481 55.631-22.642 77-15.201 21.329-35.018 35.336-59.849 42.141-15.997 4.178-45.324 6.327-88.341 6.327h-183.17V375.49z"/></glyph><glyph id="glyph83" horiz-adv-x="777" unicode="Q"><path id="path85" d="M619.66 76.681c43.852-30.362 84.52-52.368 121.53-66.335l-27.855-66.017c-51.333 18.504-102.67 47.831-153.84 87.823-53.004-29.487-111.5-44.33-175.65-44.33-64.863 0-123.52 15.678-176.36 46.836-52.646 31.357-93.315 75.169-121.81 131.83-28.492 56.665-42.658 120.49-42.658 191.32 0 70.672 14.326 135.02 42.976 193 28.691 57.859 69.359 102.03 122.32 132.35 52.845 30.163 112.02 45.324 177.36 45.324 66.176 0 125.67-15.639 178.83-47.155 53.004-31.357 93.514-75.328 121.33-131.83 27.815-56.506 41.663-120.18 41.663-191.17 0-58.854-8.834-111.82-26.82-158.85-17.827-46.996-44.847-87.982-81.019-122.8zm-208.48 121.17c54.636-15.36 99.642-38.201 135.14-68.524 55.67 50.856 83.526 127.18 83.526 229.01 0 57.978-9.829 108.68-29.526 152.01-19.658 43.136-48.468 76.801-86.311 100.84-38.002 23.836-80.501 35.814-127.86 35.814-70.474 0-129.17-24.154-175.65-72.503-46.677-48.309-69.837-120.49-69.837-216.67 0-92.996 23-164.5 69.001-214.33 46.16-49.662 105.01-74.652 176.48-74.652 34.023 0 65.858 6.327 95.862 18.981-29.686 19.339-61.003 33.028-93.832 41.027l23 69.001z"/></glyph><glyph id="glyph87" horiz-adv-x="667" unicode="S"><path id="path89" d="M45.006 230l89.336 7.84c4.178-35.855 14.007-65.182 29.487-88.183 15.519-23 39.514-41.504 71.986-55.67 32.511-14.166 69.2-21.17 109.87-21.17 36.132 0 67.967 5.332 95.663 15.997 27.656 10.864 48.309 25.507 61.838 44.17 13.49 18.862 20.334 39.196 20.334 61.361 0 22.483-6.526 41.982-19.698 58.814-12.972 16.832-34.501 30.84-64.306 42.181-19.339 7.481-61.679 19.14-127.5 34.978-65.698 15.838-111.86 30.68-138.2 44.688-34.142 17.827-59.65 40.151-76.482 66.653-16.673 26.502-24.99 56.188-24.99 89.176 0 36.013 10.147 69.837 30.641 101.15 20.533 31.516 50.497 55.352 89.853 71.667 39.514 16.156 83.168 24.353 131.32 24.353 53.164 0 99.841-8.516 140.51-25.666 40.509-17.03 71.667-42.18 93.514-75.328 21.647-33.187 33.506-70.872 35.137-112.85l-90.808-6.844c-5.014 45.165-21.488 79.507-49.662 102.51-28.174 23.16-69.678 34.66-124.67 34.66-57.342 0-99.005-10.505-125.35-31.476-26.144-21.011-39.316-46.36-39.316-75.846 0-25.826 9.312-46.996 27.815-63.51 18.345-16.673 65.858-33.665 142.86-50.975 77-17.51 129.8-32.67 158.5-45.682 41.663-19.34 72.503-43.653 92.32-72.98 19.817-29.526 29.686-63.51 29.686-101.87 0-38.162-10.864-73.975-32.67-107.64-21.846-33.665-53.164-59.85-94.031-78.671-40.828-18.663-86.828-28.014-137.8-28.014-64.863 0-119.18 9.351-162.83 28.333-43.852 18.862-78.193 47.195-103.18 85.197-24.831 37.803-38.002 80.82-39.156 128.65z"/></glyph><glyph id="glyph91" horiz-adv-x="277" unicode="f"><path id="path93" d="M86.828 0v450.18H9.351v68.325h77.477v55.153c0 34.859 3.183 60.844 9.351 77.676 8.476 22.841 23.32 41.345 44.648 55.511s51.174 21.17 89.654 21.17c24.672 0 52.01-2.865 82.014-8.834L299.323 642.5c-18.146 3.342-35.495 5.014-51.81 5.014-26.662 0-45.524-5.69-56.507-17.191-11.182-11.341-16.673-32.67-16.673-63.987v-47.831h101V450.18h-101V0H86.828z"/></glyph><glyph id="glyph95" horiz-adv-x="500" unicode="c"><path id="path97" d="M404.34 190.01l86.311-11.341c-9.312-59.491-33.466-106.17-72.463-139.83-38.838-33.665-86.669-50.497-143.34-50.497-70.832 0-128.01 23.16-171.03 69.479-43.136 46.359-64.823 112.85-64.823 199.52 0 55.989 9.351 104.97 27.855 147 18.663 41.982 46.797 73.498 84.799 94.509 37.843 20.971 79.188 31.476 123.68 31.476 56.347 0 102.51-14.326 138.16-42.817 35.854-28.492 58.854-68.842 69.001-121.33l-85.476-13.172c-8.197 34.819-22.523 61.003-43.176 78.671-20.692 17.509-45.682 26.343-75.01 26.343-44.33 0-80.342-15.838-108-47.672-27.656-31.675-41.504-81.854-41.504-150.5 0-69.678 13.331-120.33 40.191-152.01 26.661-31.516 61.48-47.354 104.5-47.354 34.501 0 63.152 10.664 86.311 31.834 23.16 21.17 37.843 53.681 44.011 97.692z"/></glyph><glyph id="glyph99" horiz-adv-x="556" unicode="b"><path id="path101" d="M147 0H65.504v715.84h87.823V460.49c37.167 46.518 84.52 69.837 142.02 69.837 31.994 0 62.157-6.486 90.649-19.339 28.492-12.813 51.85-30.999 70.354-54.158 18.305-23.319 32.829-51.333 43.136-84.322 10.505-32.829 15.678-68.006 15.678-105.33 0-89.017-22.006-157.66-65.977-206.17-43.852-48.508-96.697-72.662-158.18-72.662-61.162 0-109.19 25.507-144.01 76.642V.006zm-.995 263.15c0-62.157 8.516-107 25.348-134.66 27.656-45.324 65.141-68.006 112.34-68.006 38.48 0 71.667 16.673 99.642 50.179 28.014 33.347 42.022 83.008 42.022 149.18 0 67.648-13.53 117.67-40.35 149.82-26.82 32.153-59.332 48.349-97.334 48.349-38.48 0-71.667-16.673-99.682-50.02-27.974-33.347-41.982-81.655-41.982-144.85z"/></glyph><glyph id="glyph103" horiz-adv-x="556" unicode="g"><path id="path105" d="M49.821-43.016l85.515-12.654c3.502-26.343 13.49-45.484 29.646-57.66 21.846-16.156 51.691-24.353 89.336-24.353 40.868 0 72.185 8.197 94.349 24.353 22.165 16.315 37.008 39.156 44.847 68.325 4.656 17.986 6.645 55.511 6.327 112.85C361.481 22.68 313.65-.002 256.351-.002c-71.349 0-126.5 25.666-165.5 77.159-38.997 51.333-58.695 113.17-58.695 185 0 49.503 9.033 95.185 26.86 137.01 17.986 41.822 43.971 74.174 77.994 97.016 33.983 22.642 73.975 34.142 119.82 34.142 61.162 0 111.66-24.831 151.33-74.334v62.515h81.178V70.316c0-80.661-8.317-137.96-24.672-171.67-16.514-33.665-42.499-60.326-78.154-79.825-35.694-19.499-79.507-29.328-131.68-29.328-61.838 0-111.82 14.007-149.82 41.822C66.85-140.83 48.506-99.007 49.82-43.015zm72.662 311.5c0-67.967 13.53-117.67 40.668-148.83 27.02-31.317 60.844-46.836 101.51-46.836 40.35 0 74.174 15.519 101.51 46.518 27.338 31.158 40.987 79.825 40.987 146.32 0 63.51-14.007 111.34-42.181 143.49-28.134 32.193-62.157 48.349-101.83 48.349-38.997 0-72.145-15.838-99.642-47.672-27.338-31.675-41.027-78.83-41.027-141.34z"/></glyph><glyph id="glyph107" horiz-adv-x="556" unicode="n"><path id="path109" d="M66.017 0v518.5h78.989v-73.657c38.162 56.984 93.156 85.476 164.98 85.476 31.357 0 60.008-5.65 86.192-16.832 26.303-11.341 45.802-25.985 58.814-44.33 13.172-18.146 22.165-39.833 27.497-64.823 3.183-16.355 4.855-44.847 4.855-85.515V-.001h-88.022v315.52c0 35.655-3.343 62.475-10.147 80.302-6.845 17.668-19.021 31.834-36.331 42.34-17.51 10.664-37.843 15.997-61.361 15.997-37.485 0-69.638-11.978-96.976-35.655-27.18-23.836-40.668-68.842-40.668-135.34V-.007H66.016z"/></glyph><glyph id="glyph111" horiz-adv-x="222" unicode="i"><path id="path113" d="M66.335 614.68v101.15h87.982V614.68H66.335zm0-614.68v518.5h87.982V0H66.335z"/></glyph><glyph id="glyph115" horiz-adv-x="832" unicode="m"><path id="path117" d="M66.017 0v518.5h78.472v-72.662c16.355 25.308 38.002 45.842 65.022 61.162 26.98 15.48 57.819 23.319 92.32 23.319 38.321 0 69.837-7.998 94.349-23.995 24.672-15.997 41.982-38.162 51.97-66.813 41.186 60.486 94.509 90.808 160.17 90.808 51.532 0 91.007-14.326 118.7-42.817 27.656-28.492 41.464-72.344 41.464-131.52V-.008h-87.306v326.66c0 35.177-2.825 60.486-8.516 76.005-5.81 15.32-16.156 27.815-30.999 37.326-15.002 9.351-32.67 14.166-52.845 14.166-36.49 0-66.653-12.177-90.808-36.49-23.995-24.154-36.172-62.992-36.172-116.32V-.011h-87.823v336.85c0 39.156-7.163 68.484-21.528 87.982-14.326 19.499-37.644 29.328-70.314 29.328-24.672 0-47.513-6.486-68.524-19.658-20.97-13.012-36.33-31.994-45.643-56.984-9.51-25.189-14.166-61.361-14.166-108.52v-269H66.017z"/></glyph><glyph id="glyph119" horiz-adv-x="556" unicode="o"><path id="path121" d="M33.148 259.33c0 96.021 26.701 167.17 80.183 213.33 44.489 38.321 98.846 57.66 162.99 57.66 71.349 0 129.69-23.319 174.85-70.155 45.324-46.677 67.807-111.18 67.807-193.51 0-66.813-9.988-119.34-29.964-157.5-20.016-38.321-49.184-67.967-87.346-89.136-38.321-21.17-80.024-31.675-125.35-31.675-72.503 0-131.16 23.16-176 69.837-44.807 46.478-67.171 113.49-67.171 201.15zm90.37 0c0-66.494 14.485-116.16 43.494-149.18 28.969-33.148 65.499-49.662 109.31-49.662 43.693 0 80.024 16.673 108.99 49.861 28.85 33.148 43.335 83.804 43.335 151.81 0 64.186-14.485 112.85-43.653 145.84-29.168 32.988-65.34 49.503-108.68 49.503-43.812 0-80.342-16.514-109.31-49.343-29.009-32.829-43.494-82.491-43.494-148.83z"/></glyph><glyph id="glyph123" horiz-adv-x="556" unicode="e"><path id="path125" d="M420.85 167.01l90.808-11.182c-14.326-53.164-40.828-94.349-79.507-123.68-38.838-29.168-88.301-43.812-148.47-43.812-75.846 0-136.01 23.319-180.34 69.996-44.528 46.677-66.693 112.18-66.693 196.5 0 87.346 22.523 154.99 67.37 203.18 44.966 48.15 103.14 72.304 174.81 72.304 69.32 0 125.98-23.637 169.84-70.832 44.011-47.155 66.017-113.65 66.017-199.16 0-5.332-.199-13.172-.517-23.478h-386.67c3.183-57.024 19.339-100.68 48.349-130.84 28.969-30.322 64.982-45.523 108.32-45.523 32.153 0 59.69 8.516 82.49 25.507 22.842 16.832 40.829 43.852 54.199 81.019zm-288.5 142.14h289.5c-3.86 43.534-15.002 76.363-33.187 98.01-27.974 33.824-64.345 50.856-108.83 50.856-40.31 0-74.334-13.53-101.83-40.509-27.497-27.02-42.658-63.191-45.643-108.36z"/></glyph><glyph id="glyph127" horiz-adv-x="556" unicode="d"><path id="path129" d="M402.35 0v65.499C369.521 14.007 321.172-11.66 257.34-11.66c-41.345 0-79.347 11.341-114.01 34.142-34.66 22.682-61.52 54.516-80.661 95.503-19.021 40.828-28.492 87.664-28.492 140.83 0 51.691 8.635 98.687 25.826 140.87 17.31 42.141 43.176 74.493 77.676 96.817 34.501 22.483 73.14 33.824 115.8 33.824 31.198 0 59.013-6.645 83.366-19.817 24.473-13.172 44.33-30.322 59.65-51.492v256.82h87.346V-.003h-81.496zM124.51 258.81c0-66.494 14.007-116.16 41.982-148.98 28.014-32.829 61.003-49.343 99.164-49.343 38.36 0 70.991 15.838 97.851 47.195 26.82 31.317 40.31 79.308 40.31 143.81 0 70.991-13.649 123-40.987 156.19-27.338 33.307-61.003 49.821-101.15 49.821-38.997 0-71.667-15.997-97.851-47.831-26.144-31.834-39.316-82.173-39.316-150.86z"/></glyph><glyph id="glyph131" horiz-adv-x="222" unicode="l"><path id="path133" d="M63.987 0v715.84h87.863V0H63.987z"/></glyph><glyph id="glyph135" horiz-adv-x="556" unicode="a"><path id="path137" d="M404.34 63.987c-32.67-27.656-63.987-47.155-93.991-58.655-30.163-11.341-62.515-16.992-97.016-16.992-56.984 0-100.68 13.808-131.32 41.663-30.521 27.815-45.842 63.51-45.842 106.64 0 25.507 5.65 48.667 17.31 69.678 11.5 21.011 26.701 37.843 45.364 50.497 18.822 12.694 39.833 22.324 63.311 28.85 17.191 4.497 43.176 8.993 77.994 13.172 71.031 8.476 123.36 18.504 156.86 30.322.318 12.018.478 19.658.478 22.841 0 35.814-8.317 61.162-24.99 75.647-22.324 20.016-55.83 29.845-100 29.845-41.345 0-71.826-7.163-91.683-21.687-19.658-14.485-34.142-40.151-43.653-77l-85.834 11.858c7.839 36.649 20.653 66.494 38.52 88.977 17.827 22.682 43.812 40.191 77.636 52.368 33.864 12.137 73.02 18.305 117.67 18.305 44.33 0 80.183-5.332 107.84-15.639 27.656-10.505 47.99-23.518 61.162-39.355 13.012-15.838 22.006-35.655 27.338-59.809 2.825-15.002 4.337-42.022 4.337-81.019v-117.15c0-81.854 1.83-133.51 5.65-155.03 3.701-21.647 11.183-42.499 22.166-62.316h-91.803c-8.994 18.185-15.002 39.514-17.51 63.987zm-7.322 196.34c-32.033-13.172-79.865-24.154-143.53-33.307-36.132-5.173-61.799-11.023-76.642-17.509-15.002-6.526-26.66-15.997-34.66-28.691-8.197-12.495-12.336-26.303-12.336-41.663 0-23.478 8.993-42.976 26.661-58.655 17.668-15.519 43.653-23.319 77.835-23.319 33.824 0 63.987 7.322 90.33 22.165 26.343 14.803 45.842 35.137 58.178 60.804 9.47 19.857 14.166 49.184 14.166 87.863v32.312z"/></glyph><glyph id="glyph139" horiz-adv-x="500" unicode="s"><path id="path141" d="M30.84 154.84l86.828 13.649c4.815-34.819 18.504-61.48 40.828-80.143 22.165-18.504 53.323-27.855 93.514-27.855 40.31 0 70.314 8.357 89.813 24.672 19.499 16.514 29.328 35.854 29.328 57.859 0 19.976-8.635 35.495-25.985 46.996-12.018 7.84-41.982 17.668-89.813 29.646-64.345 16.355-109.19 30.322-134.02 42.34-24.831 11.818-43.812 28.333-56.665 49.343-12.813 21.011-19.339 44.17-19.339 69.479 0 23.199 5.332 44.528 15.997 64.186 10.505 19.817 25.03 36.172 43.176 49.144 13.689 10.028 32.352 18.703 55.83 25.666 23.677 7.004 49.025 10.505 76.005 10.505 40.668 0 76.323-6.009 107.16-17.668 30.84-11.659 53.522-27.497 68.166-47.473 14.684-20.175 24.672-46.836 30.163-80.342l-85.834-11.858c-3.98 26.701-15.32 47.513-33.983 62.515s-45.165 22.523-79.347 22.523c-40.31 0-69.16-6.685-86.311-20.016-17.35-13.331-26.025-29.009-26.025-46.836 0-11.5 3.661-21.647 10.864-30.84 7.163-9.51 18.305-17.151 33.665-23.478 8.834-3.183 34.66-10.664 77.636-22.364 62.197-16.634 105.53-30.163 130-40.828 24.672-10.505 44.011-25.985 58.018-46.16s20.971-45.165 20.971-75.169c0-29.328-8.635-56.824-25.666-82.809-17.151-25.866-41.822-45.842-73.975-60.008s-68.683-21.17-109.35-21.17c-67.489 0-118.82 14.007-154.16 41.982C62.993 58.342 40.51 99.846 30.84 154.838z"/></glyph><glyph id="glyph143" horiz-adv-x="500" unicode="v"><path id="path145" d="M209.99 0L12.66 518.5h92.837L216.837 208c12.018-33.506 23-68.325 33.148-104.5 7.84 27.338 18.703 60.167 32.67 98.647l115.36 316.36h90.33L292.005.007h-82.014z"/></glyph><glyph id="glyph147" horiz-adv-x="500" unicode="x"><path id="path149" d="M7.322 0l189.5 269.52L21.492 518.5h109.83l79.666-121.49c14.843-23.199 27.02-42.499 36.013-58.178 14.326 21.488 27.497 40.509 39.674 57.143l87.346 122.52h104.97l-179.15-244.17L492.68-.005H384.84l-106.49 161.16-28.372 43.494L113.849-.011H7.319z"/></glyph><glyph id="glyph151" horiz-adv-x="332" unicode="r"><path id="path153" d="M64.982 0v518.5h79.029v-78.512c20.175 36.689 38.838 61.003 55.989 72.662 16.992 11.659 35.814 17.668 56.347 17.668 29.646 0 59.65-9.47 90.33-28.333l-30.362-81.655c-21.329 12.813-42.817 19.18-64.306 19.18-19.339 0-36.49-5.85-51.85-17.35-15.32-11.659-26.144-27.656-32.67-48.15-9.829-31.198-14.644-65.34-14.644-102.51V-.01H64.982z"/></glyph><glyph id="glyph155" horiz-adv-x="277" unicode="t"><path id="path157" d="M257.82 78.671L270.514.995c-24.672-5.173-46.836-7.84-66.335-7.84-31.994 0-56.665 5.015-74.334 15.162C112.336 18.345 100 31.675 92.837 48.15c-7.163 16.355-10.824 51.015-10.824 103.7v298.33H17.508v68.325h64.505v128.49l87.505 52.686V518.5h88.301v-68.325h-88.301v-303.18c0-25.15 1.472-41.146 4.497-48.35 3.143-7.162 8.157-12.812 15.16-17.15 7.004-4.178 16.993-6.327 30.005-6.327 9.829 0 22.642 1.154 38.639 3.502z"/></glyph><glyph id="glyph159" horiz-adv-x="556" unicode="u"><path id="path161" d="M405.85 0v76.164c-40.509-58.655-95.344-87.823-164.66-87.823-30.521 0-59.172 5.81-85.674 17.509-26.502 11.659-46.16 26.502-59.013 44.13-13.012 17.867-22.006 39.514-27.179 65.181-3.502 17.35-5.332 44.688-5.332 82.173v321.17h87.863v-287.5c0-46.001 1.83-76.84 5.332-92.837 5.65-23.16 17.31-41.146 35.137-54.477 18.026-13.172 40.191-19.698 66.494-19.698 26.343 0 51.015 6.685 74.174 20.175 23.16 13.49 39.514 31.994 49.025 55.153 9.67 23.358 14.485 57.183 14.485 101.35v277.84h87.823V.01h-78.472z"/></glyph><glyph id="glyph163" horiz-adv-x="556" unicode="p"><path id="path165" d="M66.017-198.65V518.5h79.984v-67.33c18.822 26.343 40.151 46.16 63.987 59.332 23.677 13.172 52.527 19.817 86.351 19.817 44.33 0 83.327-11.5 117.15-34.142 34.023-22.841 59.491-54.994 76.681-96.498 17.31-41.504 25.985-87.028 25.985-136.53 0-53.004-9.47-100.84-28.651-143.34-19.021-42.499-46.677-74.97-83.008-97.652-36.331-22.483-74.493-33.824-114.48-33.824-29.328 0-55.511 6.168-78.83 18.504-23.358 12.336-42.34 27.974-57.342 46.836v-252.33H66.021zm79.467 454.99c0-66.693 13.53-116 40.509-148.03 27.02-31.834 59.849-47.831 98.17-47.831 38.997 0 72.503 16.514 100.32 49.662 27.855 33.028 41.862 84.202 41.862 153.52 0 66.176-13.689 115.48-40.828 148.51-27.179 32.829-59.69 49.304-97.334 49.304-37.525 0-70.672-17.469-99.522-52.487-28.81-34.978-43.176-85.993-43.176-152.65z"/></glyph><glyph id="glyph167" horiz-adv-x="277" unicode="í"><path id="path169" d="M96.657 0v518.5h87.823V0H96.657zM92.16 583.01l65.022 136.65h115.16l-107.36-136.65h-72.82z"/></glyph><glyph id="glyph171" horiz-adv-x="556" unicode="ó"><path id="path173" d="M33.148 259.33c0 96.021 26.701 167.17 80.183 213.33 44.489 38.321 98.846 57.66 162.99 57.66 71.349 0 129.69-23.319 174.85-70.155 45.324-46.677 67.807-111.18 67.807-193.51 0-66.813-9.988-119.34-29.964-157.5-20.016-38.321-49.184-67.967-87.346-89.136-38.321-21.17-80.024-31.675-125.35-31.675-72.503 0-131.16 23.16-176 69.837-44.807 46.478-67.171 113.49-67.171 201.15zm90.37 0c0-66.494 14.485-116.16 43.494-149.18 28.969-33.148 65.499-49.662 109.31-49.662 43.693 0 80.024 16.673 108.99 49.861 28.85 33.148 43.335 83.804 43.335 151.81 0 64.186-14.485 112.85-43.653 145.84-29.168 32.988-65.34 49.503-108.68 49.503-43.812 0-80.342-16.514-109.31-49.343-29.009-32.829-43.494-82.491-43.494-148.83zm103.98 323.68l65.022 136.65h115.16L300.32 583.01h-72.821z"/></glyph><glyph id="glyph175" horiz-adv-x="556" unicode="ñ"><path id="path177" d="M66.017 0v518.5h78.989v-73.657c38.162 56.984 93.156 85.476 164.98 85.476 31.357 0 60.008-5.65 86.192-16.832 26.303-11.341 45.802-25.985 58.814-44.33 13.172-18.146 22.165-39.833 27.497-64.823 3.183-16.355 4.855-44.847 4.855-85.515V-.001h-88.022v315.52c0 35.655-3.343 62.475-10.147 80.302-6.845 17.668-19.021 31.834-36.331 42.34-17.51 10.664-37.843 15.997-61.361 15.997-37.485 0-69.638-11.978-96.976-35.655-27.18-23.836-40.668-68.842-40.668-135.34V-.007H66.016zm61.998 595.18c-.358 33.824 8.834 60.963 27.815 81.138 18.504 20.175 42.181 30.163 71.19 30.163 20.135 0 47.632-8.635 82.491-26.303 19.339-9.869 34.501-14.684 46.001-14.684 10.306 0 18.305 2.825 23.836 8.516 5.65 5.81 9.47 16.992 11.818 33.983h63.351c-.836-37.167-10.346-64.982-28.014-83.486s-40.35-27.855-67.688-27.855c-20.493 0-47.473 9.192-80.979 27.338-21.846 11.659-37.843 17.668-47.831 17.668-11.182 0-20.016-3.98-26.82-11.818-7.203-7.84-10.664-19.34-10.346-34.66h-64.823z"/></glyph></font>
</defs>
</svg>
