<svg xmlns="http://www.w3.org/2000/svg">
<defs>
<font id="FontID0" horiz-origin-x="0" horiz-origin-y="0" vert-origin-x="45" horiz-adv-x="90" vert-origin-y="90" vert-adv-y="90" font-weight="400"><font-face id="font-face3336" font-family="Stuyvesant BT"/><glyph id="glyph3342" unicode=")" horiz-adv-x="241"><path id="path3344" d="M279.66 651.83c-11.32-113.16-39.822-226.67-85.655-340.33C148.338 198.01 89.345 93.16 17.165-2.84c27.507 20.169 57.171 51.677 88.494 94.338 31.508 42.827 60.176 91.665 86.171 146.33 29.332 60.508 51.677 120.83 67.163 181.17 15.505 60.157 23.174 117.16 23.174 170.83 0 11.172-.166 21.497-.664 31.342-.497 9.66-1.161 20.003-1.843 30.66zm-5.826 64.011c8.5-21.515 14.675-44.173 18.326-67.845 3.835-23.838 5.679-51.824 5.679-83.996 0-120.17-29.996-236.33-89.84-348.67-59.992-112.33-144-209.18-252-290.5l-7.817 7.338c35.49 37.83 69.984 82.668 103.83 134.82 33.665 52.009 64.988 109 93.988 170.83 37.665 81.34 67.495 161.67 89.342 241 21.828 79.165 32.669 144.84 32.669 197.01 0 3.17-.166 8.333-.683 15.339-.497 6.987-1.327 15.155-2.323 24.668h8.831z"/></glyph><glyph id="glyph3346" unicode="(" horiz-adv-x="241"><path id="path3348" d="M100.99-4.83c5.844 117.16 30.014 228.66 72.344 334.49 42.33 105.68 104.16 209.51 185.67 311.52-80.843-72.676-145-159.84-192.51-261.85-47.492-101.82-71.33-201.99-71.33-300.16 0-13.993.498-28.005 1.493-41.998C97.671 23.179 99 9.167 100.99-4.826zm4.849-71.33c-7.67 19.819-13.514 41.5-17.183 64.988-3.835 23.34-5.66 49.667-5.66 78.999 0 124 29.498 242.18 88.66 354.34 59.014 112.17 143.51 209.66 253.17 292.66l8.333-7.836c-36.154-37.665-70.998-82.668-104.83-134.66-33.665-52.175-64.822-109.33-93.49-171.49-38.016-82.336-68.011-162.68-89.674-241-21.663-78.17-32.337-142.35-32.337-192.01 0-4 .166-9.66.83-17.33.682-7.67 1.345-16.5 2.01-26.659h-9.827z"/></glyph><glyph id="glyph3350" unicode="," horiz-adv-x="157"><path id="path3352" d="M37.997 22.842c0-3.503 1.327-6.342 4-8.518 2.508-2.157 5.845-3.152 9.661-3.152 6.674 0 11.67 2.987 15.007 8.83 3.503 5.827 5.162 14.16 5.162 25 0 2.84-1.327 5.495-4.166 7.67-2.82 2.323-5.992 3.503-9.495 3.503-5.66 0-10.324-3.17-14.325-9.513-3.835-6.323-5.844-14.325-5.844-23.82zM74.833 5.825C71.496 2.838 67.993.663 64.509-.831c-3.669-1.511-7.338-2.175-11.338-2.175-8.5 0-15.339 2.507-20.501 7.338-5.162 4.83-7.835 11.006-7.835 18.51 0 13.164 3.503 23.82 10.324 32.319 6.84 8.499 15.339 12.666 25.848 12.666 10.656 0 19.32-3.67 25.663-11.154 6.323-7.504 9.494-17.846 9.494-30.844 0-18.823-7.171-36.504-21.497-52.838-14.159-16.15-32.503-27.322-54.663-33.167L16.17-49.833c12.998 4.166 24.004 10.509 33.167 19.008 9.162 8.499 17.662 20.667 25.497 36.65z"/></glyph><glyph id="glyph3354" unicode="." horiz-adv-x="157"><path id="path3356" d="M37.002 19.008c0-3.503 1.493-6.84 4.332-9.845 3.006-2.82 6.158-4.333 9.33-4.333 6.507 0 12.167 3.67 16.665 11.172 4.499 7.504 6.84 16.17 6.84 25.995 0 3.503-1.327 6.84-4.167 9.827-2.839 2.84-5.844 4.351-8.997 4.351-5.844 0-11.338-4-16.5-12.168-4.996-8.167-7.503-16.5-7.503-25zM58.001-9.826c-9.163 0-16.832 2.82-23.34 8.5-6.49 5.659-9.826 12.5-9.826 20.334 0 14.325 3.834 25.995 11.67 35.158 7.835 9.163 17.661 13.661 29.331 13.661 9.495 0 17.33-2.82 23.673-8.499 6.323-5.66 9.494-12.832 9.494-21.331 0-13.661-4-25-12.002-34.162C79-5.328 69.34-9.826 58.001-9.826z"/></glyph><glyph id="glyph3358" horiz-adv-x="157"/><glyph id="glyph3360" unicode="9" horiz-adv-x="315"><path id="path3362" d="M115.34 191.83c-5.162 10.011-8.997 19.837-11.504 29.498-2.507 9.679-3.669 19.174-3.669 28.668 0 25.331 5.844 52.009 17.496 80.013 11.836 27.986 28.502 55.327 50.331 82.152-27.322-15.652-49.15-36.154-65.32-61.669C86.34 325.161 78.172 299 78.172 271.843c0-17.846 3.005-33.351 8.997-46.515 5.992-13.329 15.505-24.502 28.171-33.499zm168.82 208c.35-4.498.848-9.495 1.346-14.989.498-5.678.663-8.831.663-9.845 0-42.662-11.504-92.329-34.66-149.17-23.174-56.82-58-121.33-104.52-193.65 42.348 31.987 78.502 78.336 108.68 139.16 30.162 61.006 45.17 116.5 45.17 166.5 0 14.012-1.346 25.848-3.835 35.176-2.673 9.495-7.006 18.492-12.85 26.825zm-46.33-167.99c11.338 26.327 20.003 51.492 25.682 75.496 5.66 24.004 8.5 46.164 8.5 66.665 0 20.833-3.67 35.674-11.007 44.173-7.338 8.665-19.672 12.998-36.836 12.998-13.329 0-24.17-4-32.669-12.002-8.499-8.001-17.994-23.672-28.336-47.16-12.998-29.848-23.322-58-30.825-84.18-7.504-26.327-11.172-46.496-11.172-60.821 0-14.675 2.84-25.663 8.5-33.001 5.678-7.338 14.177-11.006 25.165-11.006 10.177 0 22.345 4.167 36.67 12.666 14.343 8.5 29.664 20.501 46.33 36.172zm-12.168-28.336c-17.33-12.334-32.319-21.331-45.15-27.175-12.85-5.66-24.668-8.5-35.508-8.5-23.008 0-42.33 9.68-57.834 28.835-15.505 19.174-23.174 43.675-23.174 73.173 0 43.325 17.017 82.834 51.013 118.51 33.996 35.656 70.002 53.484 108.16 53.484 29.83 0 54.332-11.818 73.487-35.656 19.008-23.672 28.502-54.83 28.502-93.177 0-29.996-6.987-62.5-21.165-97.491-14.159-34.992-34.162-69.505-59.826-103.67-31.01-40.338-60.84-70.334-89.84-89.674-29-19.321-58-29-87.332-29-22.16 0-40.504 5.015-54.995 15.173C-2.509 18.328-9.663 30.994-9.663 45.835c0 9.826 2.323 17.33 6.987 22.492 4.849 5.18 11.67 7.835 20.833 7.835 3.835 0 7.338-.663 10.177-1.99 3.005-1.328 5.826-3.338 8.831-6.343-4.83-3.153-8.665-7.485-11.338-12.666-2.489-5.162-3.834-10.822-3.834-17.164 0-8.997 4.83-16.666 14.343-22.824C45.996 9 58.662 5.828 74.333 5.828c37.997 0 87.83 64.508 149.33 193.34l1.99 4.332z"/></glyph><glyph id="glyph3364" unicode="0" horiz-adv-x="315"><path id="path3366" d="M104.99-6.84c-25.331 0-45.501 10.177-60.489 30.346-15.007 20.17-22.511 47.658-22.511 82.502 0 37.333 8.5 77.322 25.663 119.98 17.017 42.68 40.67 82.004 70.5 118.18 25.516 30.328 51.013 54.166 77.008 71.496 25.829 17.496 48.506 26.161 68.159 26.161 22.013 0 39.841-9.494 53.336-28.484 13.514-19.174 20.335-44.505 20.335-76.51 0-30.162-7.172-64.988-21.497-104.5-14.325-39.324-34.162-78.004-59.494-116.17-27.175-40.338-53.336-70.998-78.999-91.83C151.504 3.496 127.5-6.847 104.989-6.847zM68.836 48.837c0-15.007 2.987-25.829 8.997-32.669 5.992-6.84 15.67-10.343 29.166-10.343 17.164 0 35.656 8.665 55.327 25.848 19.672 17.33 39.675 42.33 59.844 75.164 24.483 40.154 44.487 84.991 60.323 134.82 15.837 49.833 23.672 91.001 23.672 123.5 0 20.17-3.503 36.006-10.675 47.16-7.172 11.172-17.33 16.832-30.328 16.832-14.343 0-29-8.83-44.007-26.327-14.99-17.662-35.656-51.99-62.001-103-27.986-52.82-50-102.16-66.168-147.99-16.15-45.832-24.152-80.179-24.152-103zm-10.343-20.5c-1.493 5.161-2.673 10.655-3.337 16.5-.664 5.991-.996 14.822-.996 26.99 0 47.51 12.832 99.334 38.33 155.68 25.496 56.323 64.673 118.16 117.51 185.5-52.507-39.675-94.505-87.849-126.18-144.17-31.822-56.507-47.659-110.84-47.659-162.83 0-17.348 1.826-32.337 5.66-45.003 3.67-12.666 9.329-23.672 16.666-32.669z"/></glyph><glyph id="glyph3368" unicode="5" horiz-adv-x="315"><path id="path3370" d="M149.83 24.834c23.506 6.508 44.837 25.995 64.342 58.664 19.321 32.503 29 64.674 29 96.495 0 7.504-1.014 14.675-3.005 21.515-1.844 6.821-4.996 14.325-9.163 22.492-2.01-36.172-10.343-72.159-25-108.16C191.495 80 172.671 49.672 149.83 24.839zm3.005 366.16c19.506-4.167 37.997-7.504 55.66-9.66 17.495-2.342 33.664-3.503 48.34-3.503 24.335 0 44.338 3.502 59.825 10.343 15.505 6.82 27.507 17.33 36.338 31.655-13.329-6.158-27.507-10.656-42.496-13.661-15.007-2.84-31.342-4.333-49.335-4.333-18.16 0-35.508 1.162-52.009 3.669-16.334 2.489-32.153 5.992-46.994 10.49l-9.329-25zm-54.663-138.66c12.002 6.49 23.654 11.338 34.826 14.657 11.338 3.171 22.842 4.849 34.992 4.849 29.682 0 54.184-10.177 73.671-30.512 19.506-20.335 29.332-46.164 29.332-77.322 0-45.501-18.989-85.507-56.82-119.67-38.016-34.181-83.332-51.18-136-51.18-28.668 0-51.843 5.68-69.505 16.833C-9.16 21.16-17.99 35.67-17.99 53.167c0 9.494 2.82 16.998 8.5 22.492 5.66 5.512 13.66 8.333 23.653 8.333 4 0 7.67-.664 11.006-1.991 3.503-1.346 7.504-3.503 12.002-6.84-6.84-3.835-11.67-8.333-14.675-13.164-2.82-4.83-4.332-10.84-4.332-17.994 0-12.168 5.678-21.515 16.832-28.171C46.167 9.158 62.004 5.821 82.173 5.821c23.322 0 41.998 6.508 55.825 19.506 13.846 12.998 30.18 39.841 49.004 80.511 10.509 22.492 18.676 44.818 24.834 66.997 6.176 21.994 9.328 39.49 9.328 52.156 0 9.513-5.162 17.496-15.652 24.336-10.343 6.84-23.174 10.343-38.513 10.343-15.67 0-30.66-3.503-45.169-10.675-14.49-7.172-28.502-17.994-41.832-32.337L68.844 223c15.32 32.835 30.162 67.495 44.487 103.83 14.343 36.338 28.171 74.667 41.5 114.99 17.846-6.158 35.84-10.822 53.834-14.159 18.178-3.17 36.67-4.83 55.512-4.83 18.492 0 36.485 1.493 53.668 4.664 17.33 3.005 34.328 7.836 51.326 14.325l5.826-4.83c-9.494-24.834-24.152-43.16-44.155-55.327-20.003-12.002-45.667-17.994-77.008-17.994-12.002 0-26.327.995-42.827 3.153-16.666 2.175-37.665 5.512-62.997 10.01-7.835-18.177-17.514-41.997-29.166-71.495-11.504-29.516-18.51-47.178-20.667-53.004z"/></glyph><glyph id="glyph3372" unicode="2" horiz-adv-x="315"><path id="path3374" d="M16.998 27.839a49.924 49.924 0 007.172 1.493c2.489.332 5.826.498 9.992.498 9.513 0 27.84-3.835 55.18-11.504 27.322-7.65 49.151-11.486 65.32-11.486 16.003 0 29.664 2.987 40.836 8.831 11.172 5.826 20.833 14.99 28.502 27.322-9.992-6.158-19.506-10.656-28.17-13.164-8.832-2.655-18.16-4-27.84-4-20.317 0-42.993 3.668-68.49 11.005C74.167 44.172 58.994 47.84 54.163 47.84c-7.172 0-13.827-1.677-20.003-4.848-6.158-3.319-11.836-8.334-17.164-15.155zm134.84 113.33c43.989 29 78.151 61.171 102.49 96.827 24.502 35.674 36.67 70.334 36.67 103.83 0 11.67-1.66 23.008-5.162 33.849-3.503 10.988-8.665 22.16-16.003 33.499 0-1.014.166-2.341.498-3.835.995-9.513 1.511-15.837 1.511-19.174 0-39.324-9.015-77.838-27.009-115.34-18.16-37.665-49.169-80.824-92.992-129.66zm-186-148.01l-7.835 8.831c106.84 75.515 183.66 143.18 230.84 202.84 47.326 59.678 70.832 118.34 70.832 176.01 0 16.003-4.167 28.171-12.666 36.67-8.518 8.5-20.501 12.666-36.172 12.666-25.995 0-50.331-15.671-72.842-47.178-22.658-31.323-33.996-62.001-33.996-91.997 0-7.835 1.327-15.339 3.834-22.658 2.673-7.338 6.508-14.012 11.338-20.335l-8.333-3.835c-12.002 7.504-20.999 16.832-26.843 27.84-5.826 10.987-8.83 23.985-8.83 38.992 0 32.835 13.992 62.831 41.997 90.006 28.005 27.157 59.844 40.818 95.666 40.818 31.342 0 56.84-10.324 76.51-30.825 19.653-20.5 29.498-46.828 29.498-78.999 0-66.665-70.666-145.33-212-235.84a25345.148 25345.148 0 00-55.18-35.158c1.014 0 2.341.166 4 .498 13.349.996 22.843 1.493 28.337 1.493 13.68 0 32.17-2.157 55.677-6.49 23.322-4.498 40.154-6.673 50.165-6.673 14.657 0 27.157 2.341 37.333 7.006 10.324 4.83 18.823 12.168 25.663 22.326l8.333-.996c-8.167-26.345-21.994-47.178-41.5-62.333C200.158.665 177.5-6.839 151.837-6.839c-15.339 0-36.67 3.835-64.176 11.504-27.488 7.67-47.16 11.504-58.83 11.504-9.163 0-18.676-1.843-28.336-5.494-9.827-3.503-21.331-9.347-34.66-17.514z"/></glyph><glyph id="glyph3376" unicode="7" horiz-adv-x="315"><path id="path3378" d="M90.669 14.159h32.337c3.484 37.499 15.32 80.677 35.158 129.68 19.837 48.819 46.662 101.16 80.511 156.82-36.836-33.167-68.011-74.482-93.509-123.65-25.497-49.335-43.675-103.67-54.498-162.85zm35.656 389c3.337.664 5.678 1.161 7.172 1.327 1.511.185 3.005.185 4.664.185 1.18 0 3.669-.185 7.338-.516 3.503-.332 6.342-.498 8.167-.498 12.168 0 32.503-4 61.337-12.002s50.33-12.002 64.656-12.002c14.012 0 25.516 2.507 34.679 7.337 9.163 4.997 16.003 12.334 20.5 22.18a70.456 70.456 0 00-15.836-5.015c-5.328-.996-11.836-1.494-19.34-1.494-18.823 0-42.496 3.503-70.998 10.675-28.502 6.988-47.824 10.49-57.834 10.49-12.334 0-21.497-1.493-27.322-4.332-5.844-3.005-11.67-8.5-17.183-16.334zM73.173-.001c12.666 75.496 36.836 143.18 72.325 203 35.342 59.826 84.844 115.84 148.34 167.99-2.341-.664-4.996-1.161-8.333-1.493-3.171-.332-8.665-.498-16.5-.498-10.84 0-30.162 3.669-58.332 11.006-28.171 7.32-49.833 10.988-64.84 10.988-11.338 0-21.497-1.825-30.494-5.162-8.831-3.503-17.846-8.665-26.511-15.837l-8.831 7.67c15.339 21.993 31.508 37.996 48.506 48.505 17.164 10.49 36.006 15.652 56.507 15.652 11.984 0 33.499-3.152 64.656-9.494 31.01-6.324 55.512-9.495 73.505-9.495 11.338 0 21.663 1.493 30.99 4.332 9.182 3.005 18.843 7.836 28.503 14.657l8.333-7.817c-65.504-49.5-118.32-110.01-158.66-181.84-40.338-71.846-68.841-155.84-85.507-252.17H73.177z"/></glyph><glyph id="glyph3380" unicode="8" horiz-adv-x="315"><path id="path3382" d="M186 16.998c17.994 10.84 31.157 24.336 39.822 40.504 8.684 16.334 13.016 35.822 13.016 58.664 0 30.66-14.675 70.832-44.007 120.66-29.332 49.667-44.007 85.839-44.007 108.33 0 10.675 5.346 27.507 16.169 50.331 2.175 4.498 3.835 8.001 4.83 10.177-13.66-11.006-23.82-22.842-30.66-35.674-6.84-12.666-10.324-26.327-10.324-41.002 0-17.828 14.823-51.492 44.321-100.99 29.498-49.501 44.173-88.826 44.173-118.18 0-14.657-2.839-29.83-8.499-45.667-5.844-15.818-14.012-31.489-24.834-47.16zm-20.999 203.17c-37.665-11.67-66.997-29.996-87.83-54.995-20.833-24.834-31.176-53.834-31.176-87.166 0-24.004 6.508-42.164 19.34-54.663 12.832-12.334 31.821-18.51 56.82-18.51 25.682 0 46.017 9.495 60.84 28.502 14.841 19.174 22.16 44.505 22.16 76.492 0 14.012-3.153 29.516-9.329 46.681-6.157 16.998-16.5 38.329-30.825 63.66zm46.994 35.674c33.499 12.998 58.166 28.152 73.671 45.667 15.671 17.33 23.506 38.163 23.506 62.167 0 20.833-5.844 36.836-17.348 47.824-11.652 11.172-28.152 16.666-49.667 16.666-21.497 0-38.495-6.324-51.326-18.989-12.666-12.666-19.008-29.848-19.008-51.345 0-14.325 3.171-29.332 9.347-45.169 6.158-15.818 16.5-34.66 30.825-56.82zm-53.834-25c-14.657 22.824-25 41.5-30.991 56.157-6.01 14.675-9.015 28.005-9.015 40.173 0 30.825 12.334 57.669 37.168 80.493 24.668 22.842 54.35 34.162 88.844 34.162 28.668 0 52.156-7.817 70.334-23.488 18.16-15.505 27.322-35.674 27.322-60.508 0-24.004-9.163-44.837-27.488-62.167-18.51-17.496-50.165-34.66-95.002-51.492 14.989-22.842 26.327-44.505 34.162-64.84 7.835-20.335 11.67-39.324 11.67-57.337 0-37.002-13.661-67.993-40.836-92.66-27.157-24.834-61.171-37.168-102.17-37.168-34.494 0-62.167 8.831-83 26.327C18.326 36.174 7.836 59.496 7.836 88.828c0 30.014 11.172 55.677 33.499 77.174 22.16 21.497 61.17 43.159 116.83 64.84z"/></glyph><glyph id="glyph3384" unicode="4" horiz-adv-x="315"><path id="path3386" d="M49.833 126.84c47.16 46.33 86.005 94.984 116.17 146 30.328 51.161 50.995 103 62.001 155.32h-33.167c-11.006-48.506-28.502-97.325-52.175-146.49-23.82-49.169-54.663-100.66-92.826-154.83zm153.33 66.997l-71.33-179.68h20.003l70.334 179.68h-19.008zm6.84-106.01L174.827-.003H111.83l36.172 92.66c-6.508 1.014-13.514 1.678-21 2.01-7.503.331-18.011.497-31.673.497-14.325 0-28.668-1.327-42.993-4.166-14.343-2.673-28.834-6.674-43.51-12.002L3 86.83c47.824 58.996 87.001 118.67 117.33 179 30.494 60.342 50.995 119.01 61.835 175.99h73.671c-12.334-64.822-37.333-126.82-75.164-186.32-37.684-59.346-84.678-110.51-140.5-153.5 9.66 2.323 19.819 4 30.162 5.162 10.49 1.162 21.331 1.66 32.669 1.66 6.821 0 16.003-.332 27.157-1.162 11.172-.83 18.842-1.493 22.677-1.825l39.988 102.16h65.006l-41.998-105.99h13.164c10.509 0 20.667.996 30.512 3.153 9.992 2.175 20.151 5.512 30.66 10.01l3.835-13.163c-10.51-4.85-21.331-8.5-32.503-10.675-11.172-2.342-23.34-3.503-36.338-3.503h-15.155z"/></glyph><glyph id="glyph3388" unicode="3" horiz-adv-x="315"><path id="path3390" d="M138.33 16.003c27.341 9.495 51.511 29.332 72.842 59.494s32.005 58.996 32.005 86.669c0 12.334-2.175 22.842-6.508 31.342-4.498 8.5-11.172 15.652-20.335 21.497.664-5.162 1.327-10.343 1.844-15.505.497-4.996.83-9.826 1.161-14.325 0-24.17-7.172-51.179-21.497-81.175-14.343-29.996-34.18-59.328-59.512-87.996zm78.502 233.99c23.838 7.172 43.178 21.497 58.332 42.846 15.173 21.165 22.677 44.653 22.677 69.984 0 10.675-1.844 20.003-5.678 28.005-3.65 8.001-9.661 15.007-17.828 20.833.663-6.49 1.161-11.504 1.327-14.657.166-3.337.166-6.508.166-9.845 0-22.16-4.996-45.003-15.155-68.822-10.011-23.672-24.668-46.496-43.841-68.343zm-17.496-16.003c21.165-7.153 37.665-18.326 49.833-33.499 12.002-15.155 17.994-32.319 17.994-51.492 0-37.499-19.985-72.842-59.826-106.01-39.841-33.167-84.493-49.833-134-49.833-26.843 0-49.169 6.674-67.182 19.837-18.16 13.164-27.157 29.166-27.157 48.174 0 9.66 2.84 17.662 8.333 23.82 5.494 6.176 12.334 9.347 20.501 9.347 6.158 0 11.338-1.512 15.505-4.664 4-3.005 7.154-7.504 9.495-13.514-8.5-3.153-14.675-6.987-18.344-11.154-3.816-4.333-5.66-10.011-5.66-17.164C8.828 34.49 15.17 24 27.67 16.33 40.17 8.66 57.666 4.826 80.158 4.826c25 0 49.667 17.496 73.671 52.34l.996 1.493c16.666 24.668 29.332 48.34 38.18 70.832 8.832 22.345 13.165 42.33 13.165 59.512 0 14.325-2.508 24.317-7.504 29.83-5.162 5.494-14.343 8.333-27.673 8.333-8.5 0-14.989-1.677-19.837-5.162-4.664-3.337-6.987-8.001-6.987-13.846 0-1.991.663-4.166 1.99-6.655 1.347-2.342 3.172-5.015 5.845-7.504-1.014-3.005-2.341-4.996-4.167-6.176-1.843-1.162-4.332-1.66-7.669-1.66-6.176 0-11.006 1.826-14.675 5.329-3.503 3.669-5.328 8.499-5.328 14.675 0 9.992 4.166 17.994 12.5 23.82 8.333 5.844 19.837 8.85 34.494 8.85 4.166 0 10.01-.517 17.514-1.513.995 0 1.825-.166 2.489-.497 22.326 20.5 40.836 45.169 55.327 73.67 14.509 28.669 21.68 54.167 21.68 76.659 0 13.348-3.17 23.672-9.512 31.01-6.324 7.337-15.486 10.988-27.654 10.988-21 0-42.846-12.168-65.338-36.32C139.173 368.665 128 345.99 128 325.322c0-5.329.332-9.827.995-13.661.664-4.001 1.66-7.836 3.005-11.836l-7.835-3.835c-6.342 6.84-10.84 14.178-13.827 22.013-2.84 7.835-4.333 16.5-4.333 26.327 0 26.659 11.154 49.5 33.665 68.675 22.492 19.155 49.335 28.816 80.658 28.816 29.166 0 53.336-8.831 72.16-26.66 18.841-17.661 28.335-40.006 28.335-66.996 0-27.673-10.324-51.326-30.99-70.832s-50.83-33.996-90.505-43.344z"/></glyph><glyph id="glyph3392" unicode="1" horiz-adv-x="314"><path id="path3394" d="M79.167 14.169h24.829c27.334 60.166 56.674 133.67 88.174 220.33 31.331 86.833 53.326 141.5 65.665 164.33-31.668-35.497-69.502-110.67-113.84-225.5-26.33-68.33-47.996-121.33-64.83-159.16zM57.163 0c19.836 40.996 46.335 104.33 79.504 189.83 33.33 85.67 61.33 146.33 84.497 182.17-10.998-8.838-22.661-16.834-34.662-24.002-12.001-7.169-24.837-13.502-38.5-19.001L145 339.666c44.336 26.17 91.834 59.997 142.66 101.67l.497.498 10.67-6.832c-19.829-30.336-46.833-95.503-80.829-195.5-34.005-100.17-64.332-180-91-239.5H57.16z"/></glyph><glyph id="glyph3396" unicode="G" horiz-adv-x="495"><path id="path3398" d="M309.17 45.831c31.828 16.673 58.83 40.672 80.663 72.007 22 31.493 40.672 72.667 56.004 123.33 4.166 13.323 9.995 34.496 17.499 63.498 22.492 87.832 46.658 156.33 72.834 205.17-34.842-28.008-70.008-102.84-105.51-224.18-2.993-10.163-5.16-17.834-6.824-22.994-14.004-48.165-30.006-89.172-48.176-123-17.99-33.837-40.159-65.173-66.492-93.84zm-104 239.34c-2.334 7.829-3.998 15.825-5.17 23.832-1.162 8.164-1.664 16.83-1.664 25.998 0 44.167 11.502 95.504 34.329 154 23.005 58.495 54.508 114.84 94.499 169.16-44.324-32.497-80.16-75.503-107.66-129.16-27.495-53.503-41.331-106.5-41.331-158.83 0-19.666 2.166-36.004 6.332-49.338 4.333-13.334 11.167-25.328 20.67-35.658zm224 43.832c-26.333-32.173-51.828-55.837-76.33-71.17-24.669-15.333-49.997-23.005-76.005-23.005-34.831 0-62.158 12.005-81.992 35.836-19.833 23.999-29.839 57.166-29.839 99.502 0 38.338 7.504 77.669 22.67 117.83 15.166 40.169 36.496 78.004 64.168 113 29.326 37.165 60.494 65.665 93.327 85.331 32.832 19.666 65.508 29.504 97.67 29.504 31.001 0 56.004-7.829 75.168-23.496 19.164-15.5 28.834-35.836 28.834-60.505 0-22.167-9-40.494-26.835-55-17.834-14.496-40.839-21.665-68.836-21.665h-5.327v8.833c21.498 5.83 37.992 15.5 49.829 29.337 11.67 13.658 17.499 29.83 17.499 48.825 0 18.84-6.332 33.335-18.996 43.675-12.674 10.163-31.168 15.333-55.167 15.333-25.506 0-48.008-7.169-67.842-21.665-19.99-14.506-37.657-36.84-53.325-66.67-29.84-57.669-54.34-116.5-73.504-176.5-18.996-60.17-28.5-104.5-28.5-133.17 0-19.833 4.669-33.827 13.837-42C238.999 252.998 254.343 249 275.84 249c20.828 0 41.33 5.338 61.332 15.835 20 10.665 40.337 27.003 60.829 49.16 21.34 23.005 41.666 56.842 60.505 101.01 5.494 13 9.66 22.324 12.664 27.83 14.004 28.667 29.839 52.331 47.663 71.002 17.667 18.83 37.176 32.497 58.338 41.331l3.83-6.332c-14.328-11-27.16-30.833-38.494-59.333-11.502-28.499-25.004-76.005-40.672-142.34-1.161-5.83-3.16-14.496-5.83-25.83-22.501-102.66-57.668-179.66-106-231.5-30.163-31.828-62.67-55.994-97.334-72.332C258.007 1.331 221.5-6.833 183.01-6.833c-41.331 0-75.838 7.17-103.5 21.665C51.839 29.338 38.013 46.67 38.013 66.838c0 8.499 2.501 15.5 7.326 20.995 4.835 5.506 11 8.332 18.504 8.332 1.664 0 3.339-.168 5.17-.492 1.832-.335 4.333-.838 7.494-1.508-1.497-5.494-2.826-9.66-3.663-12.664-.837-2.836-1.172-5.662-1.172-8.33 0-19.175 10.508-35 31.336-47.507 20.838-12.497 47.506-18.829 80.003-18.829 55.994 0 102.66 24.166 140 72.5 37.333 48.332 72.667 131.66 106.17 249.67z"/></glyph><glyph id="glyph3400" unicode="M" horiz-adv-x="669"><path id="path3402" d="M560.5 9.329c-6.158 8.499-10.84 17.496-13.827 27.175-3.171 9.494-4.664 19.32-4.664 29.498 0 48.838 21.165 124 63.494 225.49 42.33 101.68 101.16 217.18 176.67 346.68-78.336-104.16-141.68-208.85-189.84-313.84-48.174-105.16-72.344-185.67-72.344-241.33 0-20.833 3.834-37.997 11.504-51.492 7.67-13.514 17.33-20.833 29-22.18zM355.84 25.995c20.833 17.164 38.495 45.003 53.004 83.498 14.491 38.347 27.654 93.177 39.324 164.51 4.333 27.009 9.992 65.836 17.164 116.66 17.164 123.34 34.844 209.51 52.672 258.33-19.174-29.996-35.508-68.657-48.838-116.33-13.329-47.492-24.004-104.99-32.171-172.82-.996-7.172-2.323-17.846-4-32.171-16.5-133.16-42.33-233.66-77.157-301.67zm141.17 615.18c-46.846-61.503-91.665-153.85-134.18-276.84-10.822-31.342-19.155-54.498-25-69.34-37.333-98.006-81.488-172.84-131.98-224.5-50.681-51.491-105.01-77.34-163.01-77.34-33.499 0-59.992 5.68-79.497 16.833C-56.163 21.16-65.989 36.665-65.989 56.17c0 7.485 2.341 13.827 7.006 18.989 4.83 5.162 10.324 7.835 16.832 7.835 3.005 0 5.66-.332 8.167-.995 2.323-.664 4.498-1.678 6.49-2.84 0-1.659-.332-4.166-1.162-7.503-.83-3.503-1.327-5.992-1.327-7.67 0-15.486 7.503-28.484 22.326-38.993 14.84-10.509 33.83-15.67 57.337-15.67 53.004 0 102.67 29 149 86.834 46.164 57.834 94.67 152.01 145.5 282 34.494 89.508 68.657 161.83 102.34 216.83 33.665 55.18 68.159 95.5 103.34 120.85l10.158-7.835c-15.34-18.178-28.502-51.013-39.841-98.34-11.154-47.325-19.82-106.84-25.995-178.5-6.674-73.007-16.003-136.34-28.171-190.5-12.168-54-27.82-100.16-47.16-138.66 14.657 21.166 39.84 73.156 75.33 155.99 35.342 82.835 70.002 151.51 104 205.84 40.007 65.155 79.829 118.32 119.34 159.49 39.49 41.169 79.663 71.33 120.33 90.505l8.333-6.84c-19.506-23.654-44.173-64.324-73.671-121.99-29.664-57.669-62.831-129.16-99.666-214.84-39.16-91.499-66.5-162-82.336-211.5-15.837-49.335-23.654-88.66-23.654-117.66 0-8.997 1.493-15.837 4.664-20.169 2.987-4.498 7.504-6.674 13.33-6.674 8.167 0 21.993 9.181 41.665 27.341l2.342 2.507 8.333-11.67c-11.006-12.832-22.18-22.179-33.517-28.17-11.154-5.992-22.824-8.997-34.826-8.997-19.506 0-34.66 7.337-45.667 21.994-10.84 14.509-16.334 35.508-16.334 62.997 0 59.18 25.497 143.67 76.344 253.5 50.995 110.01 117.66 218.84 200 326.51-45.832-34.494-90.67-83-134.01-145.33-43.491-62.333-85.987-138.82-127.32-229.66a4909.028 4909.028 0 01-24.834-56.175c-57.67-129.83-112-207.17-163.18-231.84l-5.826 7.835c19.174 28.17 35.84 64.176 50.165 107.83 14.178 43.675 25.331 94.338 33.83 152.34 2.01 13.66 4.665 34.494 7.836 62.499 16.334 136 41.998 240.5 77.174 313.51z"/></glyph><glyph id="glyph3404" unicode="A" horiz-adv-x="663"><path id="path3406" d="M443.67 318.84h105.82c29 76.824 57.834 145 86.503 204.83 28.668 59.678 58.332 113.16 89.01 160.34-49.833-23.506-98.007-65.338-144.67-126.01-46.496-60.489-91.997-140.15-136.67-239.16zm-6.84-13.661c-63.163-109.34-120.17-188.68-171.33-238.01C214.505 17.834 164.34-6.834 115.17-6.834c-19.837 0-36.006 4.167-48.506 12.666-12.5 8.5-18.823 19.174-18.823 32.337 0 6.508 1.66 11.67 5.162 15.837 3.337 4 8.002 5.992 13.827 5.992 2.01 0 4.167-.332 6.674-.83 2.323-.664 4.83-1.66 7.504-2.987 0-15.339 3.982-26.677 12.15-34.015 8.167-7.319 20.335-10.988 36.67-10.988 20.5 0 42.164 6.324 65.172 18.99 23.008 12.665 45.667 31.341 68.159 55.676 31.176 33.83 70.5 96.33 118.01 187.5 18.658 36.504 33 63.992 43.49 82.668 41.335 72.823 80.512 132.83 117.68 179.83 37.003 46.994 76.659 87.498 118.66 121.33-20.334-9.162-40.153-16.169-59.66-20.999-19.505-4.83-37.664-7.319-54.662-7.319-23.008 0-60.84 11.32-113 33.996-52.175 22.492-94.172 33.83-125.68 33.83-44.321 0-80.658-13.993-109.33-41.832-28.668-27.839-42.993-62.83-42.993-105.18 0-18.16 3.318-34.162 10.158-47.824 6.84-13.66 16.832-24.336 29.83-31.839l-3.835-11.154c-21.828 9.163-38.993 22.658-51.326 40.818-12.334 18.012-18.51 38.845-18.51 62.167 0 44.007 18.344 80.013 55.014 108 36.485 28.005 84.493 42.016 143.66 42.016 40.007 0 90.006-8.85 149.66-26.345 59.678-17.496 100.51-26.327 122.34-26.327 25.663 0 51.99 4.996 79 15.173 27.156 9.993 57.17 26.327 90.337 48.653l9.827-8.167c-13.993-20.833-32.171-59.66-54.663-116.5-22.511-56.82-49.501-133.16-81.175-229.33-27.986-83.83-48.82-152.01-62.5-204-13.66-52.175-20.5-88.678-20.5-109.84 0-11.486 1.511-20.169 4.664-26.16 3.005-5.993 7.338-8.998 12.832-8.998 5.347 0 11.172 3.005 17.68 8.997 6.49 5.992 13.33 15.173 20.501 27.175l13.164-9.347c-11.67-18.823-23.506-32.503-35.176-41.002-11.652-8.5-24.668-12.666-38.993-12.666-18.492 0-33.333 7.006-44.339 20.833-11.154 13.846-16.666 32.669-16.666 56.839 0 23.672 5.18 56.507 15.34 98.173 10.323 41.666 24.501 87 42.661 136.17H436.83zm295.85 360.83c-24.336-33.167-49.5-75.515-75.68-127.01-25.996-51.326-52.323-111.83-79-181.17-24.502-62.167-43.325-118.16-56.82-168.16-13.514-49.999-20.335-88.512-20.335-115.5 0-22.16 4.333-38.827 13.164-50.331C522.84 12.5 535.837 6.84 553.002 6.84h3.503c-10.158 4.498-18.326 12.168-24.502 23.156-6.158 10.84-9.329 23.174-9.329 36.836 0 39.675 19.34 115.84 57.834 228.33 38.661 112.5 89.324 236 152.17 370.84z"/></glyph><glyph id="glyph3408" unicode="K" horiz-adv-x="627"><path id="path3410" d="M525 3.837c-10.829 6.326-19.499 17.66-26.161 34.494-6.671 16.834-10.002 36.003-10.002 57.838 0 26.667 3.829 61.827 11.335 105.5C507.67 245.34 511.338 275 511.338 291c0 8.839-1.172 17.002-3.5 24.67-2.336 7.666-5.499 14.665-9.834 21.168 0-31.162-6.005-73.837-17.998-128.17-12-54.17-18.006-92.332-18.006-114.5 0-28.337 5.5-50.172 16.665-65.833C489.671 12.664 505.172 4.5 525 3.834zm-41.165 348.16c-5.499 6.005-10.998 10.171-16.665 13.005-5.836 2.834-11.335 4.167-16.834 4.167-8.501 0-15.164-1.502-20.005-4.673-4.833-2.994-7.329-7.16-7.329-12.499 0-2.496 1.501-5.161 4.335-7.995 2.994-2.834 5.828-4.166 8.83-4.166 7.169 0 14.666.995 22.332 2.994 7.835 1.839 16.336 5.001 25.335 9.167zm1.004-14.16c-9-3.5-17.5-6.173-25.006-8.003-7.667-1.83-14.995-2.665-21.826-2.665-9.337 0-16.673 2.167-21.835 6.333-5.17 4.167-7.835 10.163-7.835 17.67 0 8.66 3.668 15.998 10.998 21.825 7.337 5.837 16.505 8.839 27.502 8.839 9.496 0 18.166-1.67 26-5.17 7.996-3.331 16-8.999 24.163-16.834 18.006 13.334 35.168 31.5 51.834 54.17 16.665 22.83 39.335 62.502 68.338 119.17l6.831 13.165c57.332 112.33 111.83 168.5 163.17 168.5 15.999 0 28.666-3.331 37.834-9.994 9.336-6.67 14-16.007 14-28.008 0-7.16-1.83-12.996-5.33-17.33-3.669-4.496-8.501-6.663-14.675-6.663-2.665 0-4.993.666-7 1.998-2.16 1.333-3.998 3.332-5.66 6.334 3.332 3.163 5.5 6.165 6.832 8.83 1.333 2.505 1.999 5.339 1.999 8.172 0 7.498-2.665 13.494-7.835 18.166-5.161 4.496-12.33 6.832-21 6.832-38.829 0-77.168-46.503-115.33-139.16a1099.139 1099.139 0 00-8.838-22.004c-19.828-48.502-42.666-88.832-68.498-121.17-26.001-32.166-54.827-56.168-86.833-71.67 10.837-13.334 18.504-26.5 23.336-39.326 4.663-12.836 7-28.168 7-45.668 0-14-3.172-41.005-9.505-81.006-6.326-40.161-9.497-73.162-9.497-99.163 0-22.501 2.497-39.832 7.338-52.331 4.832-12.338 11.664-18.504 20.494-18.504 7.835 0 22.5 12.17 43.999 36.67l1.34.995 9.834-6.831c-10.17-17.002-21.675-29.661-34.67-38.162-12.997-8.502-27.503-12.667-43.502-12.667-22.66 0-40.667 8.5-53.832 25.335-13.165 16.994-19.836 40.33-19.836 70.329 0 30.336 6.334 71.332 18.832 123 12.507 51.825 18.672 86.833 18.672 105 0 .666-.168 3.33-.666 8.163-.506 4.664-1.003 9-1.332 12.836zm93.327 365.33c-50.501-33.338-97.494-116.83-141.16-250.5-5.5-17.34-9.834-30.505-13.165-39.672l-4.833-15.5c-46.166-142.66-87.837-238.83-125-288.66C265.68 70.831 235.006 41.827 202.174 22c-32.832-19.836-66.5-29.838-100.99-29.838-30.673 0-56.337 6.832-77.008 20.502C3.513 26.328-6.818 42.166-6.818 59.995c0 4.673 1.333 8.67 3.829 12.001 2.665 3.5 6.005 5.17 9.834 5.17 6.165 0 11.006-5.338 14.666-16.167 1.67-5.17 3.002-9.167 4.335-12.17 7.168-14 17.33-24.5 30.336-31.5 12.996-7 28.995-10.5 47.828-10.5 41.67 0 76.502 18.006 104.67 54.17s66.668 127.16 115.5 273c48.502 143.17 106.5 250.5 173.84 321.83-14.666-7.497-27.671-12.996-38.997-16.665-11.504-3.5-22.172-5.33-32.335-5.33-20.165 0-47.667 10.998-82.667 33.17-35 22.164-62.671 33.161-82.836 33.161-30 0-57.003-13.663-80.997-41.165-24.171-27.502-36.172-57.67-36.172-90.165 0-12.667 2.673-23.505 7.835-32.672 5.17-9.167 13.502-17.163 24.837-23.994l-7.835-11.166c-18.166 10.163-32.335 22.83-42.666 38.162-10.171 15.164-15.332 31.5-15.332 48.671 0 33.667 16.328 63.329 49 89.161 32.832 25.832 71.164 38.837 115.16 38.837 30.167 0 65.167-9.167 105-27.334 39.672-18.166 66.668-27.334 81.006-27.334 14.995 0 31.829 4.335 50.5 13.165 18.833 8.83 38.163 21.666 58.328 38.5l8.332-9.665zm-356-644c40.33 23.665 88.166 115.33 143.5 274.83 5.827 16.665 10.33 29.332 13.165 38.171l1.998 5.33c35.497 101.16 68.498 179.33 99.172 234.33-27.334-26.996-52.5-63.497-75.507-109.66-22.83-45.997-51.167-120.5-84.666-223.33a1273.87 1273.87 0 01-7.834-23.505c-28.666-87.5-58.665-153-89.827-196.16z"/></glyph><glyph id="glyph3412" unicode="B" horiz-adv-x="648"><path id="path3414" d="M455.17 16.167c40.001 12.33 75.667 42.497 107 90.502 31.171 47.996 46.832 95.495 46.832 142.33 0 18.006-2.665 33.507-7.995 46.841-5.499 13.494-14.666 27.165-27.671 41.165 4.166-11.832 7.337-22.67 9.505-32.832 2.167-10.002 3.162-19.836 3.162-29.172 0-40.499-11.832-84.328-35.666-132-23.834-47.499-55.502-89.836-95.166-126.83zm129.84 372c26.33 14.329 46.495 34.334 60.326 59.829 13.84 25.504 20.671 55.165 20.671 89.001 0 17.002-2.665 32.504-7.835 46.503-5.161 14-13.334 27.831-24.33 41.502 3.5-7.506 6.164-14.835 7.665-21.835 1.67-7 2.497-14.337 2.497-22.172 0-32.832-5.33-66.66-16.167-101.5-10.66-34.831-24.998-65.327-42.826-91.328zm-17.002 281.66c-21.835 9.167-44.834 16.167-69.004 21-23.994 4.84-48.494 7.337-73.162 7.337-81.664 0-151.17-26.33-208.34-78.83-57.164-52.5-85.661-113-85.661-181.33 0-12.507 1.164-24.5 3.669-36.172 2.496-11.664 6.325-23.665 11.495-35.666l-3.998-7.329c-14.666 9.497-25.832 22.493-33.836 39.326-7.995 16.673-12 35.337-12 55.84 0 27.662 7.834 56.33 23.664 85.998 15.838 29.67 37.834 56.666 66.171 80.997 34.502 29.67 72.336 52.171 113.5 67.672 41.165 15.493 84.497 23.167 129.67 23.167 26.161 0 51.665-2.673 77-8.003 25.166-5.499 49.33-13.334 72.496-23.665a274.745 274.745 0 0021 12.828c7.835 4.503 18.166 9.673 31.171 15.838l4.495-12.17c-9.496-5.499-17.33-10.163-23.665-14.17a285.683 285.683 0 01-16.336-10.66c32.504-18.503 57.172-40.337 74.174-65.166 16.825-25.006 25.326-51.834 25.326-80.837 0-33.836-11.832-66.162-35.666-96.667-23.665-30.665-55.494-54.001-95.166-70.33 23.505-16.006 40.836-34.172 52.002-54.506s16.834-43.83 16.834-70.497c0-64.164-24.002-120.67-71.838-169.5C514.175 15.5 458.843-8.83 396.013-8.83c-28.675 0-51.007 3.66-66.837 11.166-15.999 7.497-24.002 18.166-24.002 31.829 0 6.502 1.839 12 5.668 16.665 3.668 4.503 8.838 7.506 15.332 8.67 5.498-17.163 14.169-30.665 25.672-40.33C363.34 9.665 377.172 4.833 393.01 4.833c15.999 0 31.5 4.832 46.166 14.666 14.835 9.665 30.834 25.504 47.667 47.338 26.667 33.499 47.499 68.996 62.502 106.16 14.995 37.336 22.493 71.5 22.493 102.83 0 13.67-1.493 26.836-4.664 39.503-3.002 12.667-7.666 25.664-13.831 38.66-11.504-4.327-22.501-7.498-33.338-9.826-10.66-2.167-20.663-3.34-29.661-3.34-10.171 0-17.67 1.84-22.838 5.668-4.993 3.669-7.498 9.167-7.498 16.336 0 7.498 3.171 13.663 9.505 18.832 6.334 5.001 14.666 7.498 24.66 7.498 7.169 0 15.004-1.502 23.673-4.335 8.661-2.994 18.664-7.498 30-13.831 21.16 13.334 40.16 41.005 56.834 82.836 16.834 41.83 25.166 82.836 25.166 123.33 0 20.502-3.837 37.665-11.672 51.496-7.835 13.84-19.828 24.837-35.995 33.338-29.004-21.835-66.837-110.67-113.33-266.5-14.675-49.168-26.17-87.331-34.67-114.83-29.005-91.995-69.503-162.83-121.66-212.34-52.003-49.497-112-74.166-179.67-74.166-33.5 0-60.665 6.005-81.496 18.006-20.84 12.16-31.34 27.334-31.34 45.997 0 5.17 1.341 9.336 3.837 12.33 2.665 3.17 6.503 4.672 11.335 4.672.667 0 2.168-.337 4.335-1.004a46.354 46.354 0 006.334-2.336c5.659-21.826 16.159-37.994 31.829-48.334 15.67-10.5 36.999-15.66 64.501-15.66 45.837 0 84.337 19.666 115.33 59.001 31.171 39.495 69.004 125.16 113.67 257.33 1.333 4.335 3.5 11.166 6.831 20.502 52.002 156.34 115.34 264.67 190 325.16zm-33.836-307c-8.999 4.166-16.665 7.169-22.661 8.661-6.005 1.67-11.504 2.505-16.336 2.505-5.836 0-10.998-1.003-15.332-3.17-4.504-2.16-6.671-4.496-6.671-7.161 0-3.171 1.839-6.005 5.338-8.172 3.66-2.328 8.164-3.5 13.664-3.5 4.672 0 10.33.835 17.17 2.673 6.832 1.83 15.165 4.495 24.83 8.164zm-272-315c52.162 36.501 97.494 116.17 136.33 239.33l.498 1.83c22.999 72.673 45.837 137.17 68.338 193.84 22.5 56.666 42 99.332 58.665 128-20.334-17.669-38.837-42.168-55.831-73.5-16.834-31.5-39.335-87.339-67.335-167.67-2.665-7.835-6.671-20.334-12.17-37.167-43.67-130.5-86.496-225.33-128.5-284.66z"/></glyph><glyph id="glyph3416" unicode="U" horiz-adv-x="675"><path id="path3418" d="M340.83 20.995c-3.328 6.51-5.83 12.842-7.326 19.007-1.675 6.165-2.502 13.166-2.502 20.995 0 5.17.827 11.837 2.67 20.001a153.672 153.672 0 007.66 24.501l147.67 368.67c10.665 26.992 17.834 47.495 21.498 61.332 3.831 13.836 5.673 25.496 5.673 35.334 0 11.994-1.34 23.999-4.165 36.161-2.67 12.005-6.667 24.166-11.837 36.506.335-4.835.67-9.67.837-14.339.157-4.668.157-10.163.157-16.327 0-16.673-2.491-34.831-7.326-54.497-4.836-19.676-12.664-43.173-23.507-70.5l-146.16-364.84c-4.166-10.163-7.337-18.996-9.169-26.668C313.004 88.67 312 82.338 312 77.167c0-14.004 2.334-25.496 6.835-34.172 4.5-8.833 11.837-16.16 22-22zm365.33 502.01l-169-430.34c-3.83-9.336-6.667-17.834-8.498-25.339-1.832-7.494-2.67-14.328-2.67-20.493 0-11 2.67-19.666 8.007-26.165 5.495-6.342 12.832-9.503 22.324-9.503h5.338c-4.668 4.333-8.164 8.833-10.832 13.669-2.501 4.992-3.83 9.66-3.83 14.16 0 5.506.659 11.168 1.998 16.674 1.162 5.494 3.998 13.334 8.164 23.329l173.83 444.01h-24.836zm-190.5-446.34c-23.832-27.327-47.171-48.165-70.333-62.336C422.155.168 400.49-6.834 379.987-6.834c-23.496 0-42.66 7.504-57.658 22.502-15.008 14.998-22.502 34.496-22.502 58.495 0 9.503 1.162 19.342 3.328 29.839 2.334 10.33 5.673 21.163 9.838 32.162l139.34 345.33.492 1.005c22.837 56.004 34.172 99.334 34.172 130.34 0 26.668-8.498 47.83-25.339 63.666-16.997 15.835-39.834 23.664-68.49 23.664-24.67 0-50.008-6.667-75.839-20.001-25.998-13.334-50.834-32.665-75-58.16-27.662-29.002-48.668-58.673-62.828-89.004-14.17-30.498-21.173-60.505-21.173-90.166 0-14.663 1.173-27.662 3.664-38.997 2.5-11.502 6.175-21.34 11-29.84l-8.834-6.834c-12.329 15.668-21.498 31.336-27.327 47.171-5.83 15.668-8.833 31.995-8.833 48.5 0 23.162 5.662 47.328 16.83 72.5 11.167 25.327 27.338 49.828 48.165 73.503 29.002 33.66 61.007 59.825 96.34 78.664 35.335 18.83 69.664 28.332 102.83 28.332 41.332 0 76.163-14.83 104.5-44.67 28.333-29.829 42.494-65.832 42.494-108.17 0-11.994-1.664-25.83-5.16-41.163-3.339-15.5-8.342-31.336-14.841-47.663l-152.99-380c-3.841-8.498-6.667-16.662-8.499-24.669-1.842-7.996-2.668-15.5-2.668-22.659 0-12.999 2.668-23.005 7.996-29.839 5.505-6.834 13.5-10.163 24.166-10.163 21.498 0 49.505 14.328 83.834 42.995 34.34 28.667 57.5 58.004 69.17 88.334l156.67 399h70.334l-187-473.33c-3.004-7.66-5.003-14.328-6.343-19.666-1.329-5.337-1.999-10.163-1.999-14.339 0-3.328 1.34-6.332 3.841-8.833 2.659-2.658 5.495-3.998 8.331-3.998 4.333 0 10.498 3.339 18.661 9.838 8.175 6.5 16.17 15.333 24.334 26.333l9.336-5.338c-10.163-18.829-20.995-32.162-32.665-40.002-11.837-7.828-26.5-11.659-44.502-11.659-14.998 0-26.668 3.998-35.166 12.33-8.498 8.33-12.664 19.832-12.664 34.495 0 5.17.335 10.173.994 15.008.67 4.993 1.675 11.167 3.34 18.661z"/></glyph><glyph id="glyph3420" unicode="V" horiz-adv-x="527"><path id="path3422" d="M311 48.838c35.158 34.162 67.163 114.66 95.832 241.16 4.498 19.837 8.001 34.826 10.158 45.003l1.014 4.332c26.161 115.34 58.83 212.83 98.154 292.49-47.16-41.666-87.664-142.16-121.5-301.32-3.337-15.837-5.826-28.005-7.338-36.006-10.822-49.833-22.492-94.836-34.992-135.01-12.5-40.32-26.327-77.156-41.334-110.65zM269.002 3.006c21.497 29.166 41.002 69.32 58.166 120 17.33 50.829 34.494 118.66 51.824 203.66l2.01 8.831c31.157 156.5 72.49 257.5 124 302.67-9.845-2.341-19.008-3.835-27.673-4.83-8.5-1.014-16.998-1.512-25-1.512-28.336 0-61.006 11.504-97.841 34.679-36.651 23.156-64.822 34.66-84.327 34.66-28.336 0-53.502-12.168-75.33-36.338-21.828-24.336-32.67-53.17-32.67-86.67 0-12.001 2.01-23.487 5.826-34.161 3.835-10.656 10.177-22.16 19.008-34.162l-5.825-6.84c-17.164 7.836-30.346 18.012-39.51 30.844-9.162 12.666-13.66 27.157-13.66 43.325 0 36.172 15.339 68.343 46.164 96.495 30.66 28.171 66.002 42.182 105.66 42.182 25.516 0 60.674-10.509 105.84-31.508 45.003-20.999 78.17-31.508 99.334-31.508 9.66 0 19.174 1.512 28.005 4.665 8.997 3.17 18.326 8 28.152 14.509l5.844-4.001c-25.663-55.327-54.332-152.67-86.005-291.99-12.002-51.677-21.331-91.167-27.84-118.18-10.655-42.993-25.33-82.502-43.656-118.66-18.51-36.172-41.998-71.514-70.666-106.01 53.17 31.674 129.5 131.17 229 298.83a21059.358 21059.358 0 0047.492 79.165c59.18 98.339 111.17 169.5 156.01 213.68 44.67 44.155 87 66.168 126.68 66.168 16.666 0 29.996-3.503 39.988-10.675 10.177-7.172 15.173-16.666 15.173-28.336 0-9.163-2.341-16.666-7.006-22.326-4.83-5.679-10.656-8.5-17.828-8.5-1.66 0-3.503.167-5.66.664-2.175.498-4.683 1.328-7.503 2.157 1.161 3.337 2.157 6.508 2.82 9.68.682 2.986 1.014 6.489 1.014 10.49 0 8.498-3.17 15.172-9.347 20.334-6.158 4.997-14.823 7.504-25.829 7.504-14.325 0-30.162-5.328-47.658-15.837-17.33-10.656-35.342-25.995-53.834-46.164-28.336-30.328-64.342-82.834-108-157.5-43.675-74.667-74.335-125.99-92.347-153.67-60.82-93.674-113.33-164.01-157.5-211-43.989-46.828-86.982-78.336-128.67-94.67l-6.821 9.845z"/></glyph><glyph id="glyph3424" unicode="T" horiz-adv-x="428"><path id="path3426" d="M269.17 59.162c42.827 26.677 91.333 121.16 145.5 283.68 37.665 113.16 70.5 203.17 98.505 270-33.167-38.845-69.339-114.84-108.33-228-7.504-20.833-13.016-36.836-16.666-48.008-4.849-13.827-11.836-34.494-21.017-61.503-34.494-103.17-67.163-175.16-97.989-216.16zm-60.01 390c-10.49 6.508-18.989 17.846-25.829 33.996-6.821 16.003-10.324 33.683-10.324 53.004 0 49.999 25.829 92.513 77.322 127.34 51.677 34.826 115.5 52.34 191.68 52.34 53.318 0 118.32-8.518 195-25.35 76.658-16.998 126.66-25.497 150.16-25.497 13.993 0 28.668 1.844 43.823 5.678 15.339 3.67 30.678 9.163 45.998 16.334l4.849-8.849c-19.837-13.661-41.5-23.82-65.006-30.66-23.34-6.84-48.34-10.324-74.667-10.324-37.333 0-93.177 9.66-167.16 28.834-74.003 19.155-129.85 28.816-167.68 28.816-59.826 0-108-17.496-144.5-52.322-36.485-34.844-54.663-80.345-54.663-136.67 0-9.826.83-18.676 2.507-26.843 1.493-8.167 4-15.818 7.153-22.99l-8.665-6.84zm353.85 204.68c-21.165-23.506-44.671-79.184-70.5-167.35-25.848-87.996-47.344-154.83-64.176-200.33-39.159-104.83-82.502-179.99-129.99-225.66-47.51-45.501-105.51-68.343-174.33-68.343-38.329 0-70.5 6.84-96.329 20.335-25.848 13.495-38.845 29-38.845 46.662 0 5.512 2.01 10.177 6.176 14.178 4 3.835 8.665 5.826 13.827 5.826 2.673 0 4.83 0 6.84-.166 1.991-.166 4.166-.664 6.323-1.328 1.678-21.847 11.836-39.01 30.512-51.843 18.823-12.666 43.99-18.989 75.496-18.989 89.158 0 168.49 102.32 237.83 307.17l5.329 14.99 7.337 20.998c58.498 171.02 117.51 275.01 176.67 312.02l7.836-8.167z"/></glyph><glyph id="glyph3428" unicode="m" horiz-adv-x="417"><path id="path3430" d="M138.16 0l63.006 163.17c.66 1.999 1.33 3.998 1.832 6.332 1.999 5.505 2.993 8.833 2.993 9.838 0 3.83-.827 6.667-2.659 8.164-1.831 1.664-5.002 2.501-9.503 2.501-10.498 0-25.17-8.666-44.167-26.165-19.164-17.342-33-37.668-41.833-60.84L68.832 0H12.158L76.16 167.5c1.507 3.663 2.837 6.667 3.674 9.336.827 2.669 1.162 4.668 1.162 6.332 0 2.993-.503 5.16-1.665 6.667-1.161 1.33-2.836 2.166-5.17 2.166-5.495 0-18.159-10.006-37.992-29.839l-6.5-6.332-8.676 10.341C36 183.337 48.664 195.163 59.33 201.507c10.498 6.332 22.167 9.492 34.831 9.492 10.832 0 19.833-3.495 27.003-10.498 7.17-7.002 10.665-16.17 10.665-27.505 0-2.323 0-4.165-.167-5.494-.168-1.173-.503-2.334-.827-3.34 18.829 15.669 35.334 27.339 49.327 35.178 14.004 7.829 25.506 11.659 34.664 11.659 14.004 0 24.669-3.328 32.006-9.828s11-15.835 11-28.175c0-.994-.168-2.49-.502-4.49-.335-2.01-.503-3.338-.503-4.343 17.667 15.343 33.67 26.835 48.176 34.842 14.496 7.996 26.333 11.994 35.826 11.994 13 0 23.507-3.664 31.336-11 7.829-7.327 11.67-16.997 11.67-29.002 0-9.828-3.339-22.66-9.838-38.662a238.194 238.194 0 00-2.836-7.337l-34.33-82.002c-2.5-5.997-4.332-10.163-5.17-12.664-.994-2.669-1.496-4.5-1.496-5.495 0-2.166.837-4.165 2.669-5.505 1.664-1.497 3.663-2.167 5.997-2.167 3.83 0 9.168 1.832 15.835 5.84 6.667 3.831 14.496 9.493 23.329 16.998l8.341-9.336C374.5 18.672 362.662 9.503 350.667 3.004c-12.172-6.5-23.005-9.838-32.832-9.838-11.67 0-21.173 3.338-28.332 10.163-7.17 6.834-10.676 16.003-10.676 27.338 0 9.503 3.506 23.005 10.676 40.672 1.33 2.825 2.167 4.824 2.491 5.83l35.166 86 .503 1.998c2.836 7.504 4.333 12.162 4.333 14.171 0 3.83-.827 6.667-2.67 8.164-1.831 1.664-4.992 2.501-9.492 2.501-10.173 0-24.501-8.666-43.006-25.84-18.494-17.333-32.497-37.658-42.001-61.165l-39.991-103h-56.674zm16.673 14.171h18.002l58.998 152c.994 2.491 1.832 5.16 2.334 7.661.492 2.67.66 4.836.66 6.5 0 6.164-1.497 10.498-4.658 13.166-3.004 2.501-8.342 3.998-15.835 4.333.335-1.33 1.162-3.328 2.334-5.83 1.33-3.339 2.166-5.17 2.491-5.84-.324-1.999-.66-4.165-1.162-6.332-.502-2.334-1.664-5.997-3.17-10.832l-59.993-154.83zm184.5 183.66c.837-1.999 1.664-4.5 2.334-7.494.67-3.171.994-6.5.994-10.006 0-3.004-.157-5.83-.66-8.666-.501-2.669-1.339-5.337-2.166-7.996l-39.007-92.835c-3.328-8.164-5.662-15.166-7.326-20.838-1.664-5.662-2.501-10.33-2.501-13.826 0-10.173 1.999-17.667 5.83-22.67 3.997-5.17 9.67-7.672 17.163-7.672.67 0 1.842.168 3.507.503 1.664.335 2.836.502 3.328.502-3.161 4.166-5.662 8.164-7.16 11.67-1.674 3.663-2.5 7.326-2.5 11.324 0 4.176.659 9.001 1.998 14.674 1.162 5.495 3.161 11.335 5.83 17.5l38.84 92.834c1.33 3.328 2.324 6.332 2.993 9.001.67 2.826 1.005 5.16 1.005 7.159 0 7.84-1.674 13.836-5.17 18.002-3.328 4.333-9.169 7.17-17.332 8.833zm-311.5-183.66H46.84l57.993 152c1.675 4.825 2.836 8.164 3.339 9.995.502 1.664.67 3.171.67 4.166 0 6.164-1.508 10.498-4.668 13.166-3.004 2.501-8.499 3.998-16.338 4.333 1.172-2.67 2.166-5.003 2.836-7.002.67-2.167.994-3.663.994-4.668 0-2-.167-4.166-.66-6.332-.502-2.334-1.674-5.997-3.17-10.832L27.834 14.167z"/></glyph><glyph id="glyph3432" unicode="l" horiz-adv-x="160"><path id="path3434" d="M220.17 504L42 69.83c-3.331-7.835-5.836-14.666-7.337-20.334-1.662-5.667-2.497-10.163-2.497-13.334 0-10.163 1.83-17.66 5.668-22.83 3.668-5.001 9.496-7.498 17.33-7.498.507 0 1.67.16 3.332.498 1.67.329 2.834.498 3.34.498-3.5 4.166-6.165 8.172-7.667 11.672-1.67 3.66-2.504 7.328-2.504 11.326 0 4.166.666 9.007 2.167 14.506 1.501 5.667 3.5 11.495 6.165 17.66l177.67 430.17c6.494 15.004 13.494 28.835 21 41.502 7.498 12.836 15.493 24.162 23.994 34.334-14-2-25.832-7.667-35.16-17.171-9.505-9.497-18.672-24.998-27.334-46.832zm-12.338 1.004c11.166 27.662 23.336 46.832 36.67 57.83 13.334 10.837 30.834 16.336 52.331 16.336h12.17c-12.001-13.671-23.505-33.5-34.165-59.5-1.67-4.335-3.002-7.338-4.006-9.336L77.002 42.504c-1.67-3.998-2.834-7.498-3.829-10.5-1.004-3.163-1.501-5.5-1.501-7.16 0-2.505.666-4.673 2.167-6.334 1.493-1.67 3.163-2.336 5.162-2.336 3.17 0 7.337 1.332 12.499 4.334 5.001 2.834 13.84 9.328 26.499 19.5l7.835-9.337c-11.664-12-23.496-21.169-35.33-27.662-11.831-6.502-22.67-9.833-32.503-9.833-12.001 0-21.498 3.33-28.498 9.833-7 6.494-10.5 15.332-10.5 26.828 0 9.008 3.331 22.172 10.163 39.503 1.332 3.5 2.167 5.997 2.504 7.338l176.16 428.33z"/></glyph><glyph id="glyph3436" unicode="g" horiz-adv-x="272"><path id="path3438" d="M222.17 192L59-193.83c-4.504-10.837-9.167-20.334-14-28.666-4.672-8.172-9.834-15.838-15.332-22.67h4.327c17.669 0 33.667 17.5 48.005 52.331 1.163 2.834 2.167 5.17 2.833 6.84l160.33 378h-22.999zM137.167 18C126.338 9.668 115.998 3.502 105.836-.166 95.834-3.995 84.338-5.833 71.671-5.833c-18.504 0-33.17 6.173-44.167 18.335-10.837 12.17-16.336 28.666-16.336 49.497 0 34.502 15.332 68 45.837 100.34 30.665 32.504 61.33 48.67 91.826 48.67 12.667 0 24.002-3.34 34.005-9.833 9.834-6.503 16.665-14.835 20.165-25.335l11.832 28.329h62.004l-158.84-375c-16.825-39.166-30.665-63.337-41.165-72.833-10.66-9.496-24.162-14.17-40.828-14.17-5.507 0-10.002.17-13.671.498-3.5.338-7 .835-10.163 1.502 6.831 10.002 12.996 20.005 18.495 29.999 5.499 10.002 10.331 19.17 14.169 27.502l92.332 216.33zM55.166 6.834a62.77 62.77 0 00-7.169 17.002c-1.492 5.996-2.159 12.667-2.159 20.165 0 24.002 6.334 48.671 18.832 73.668C77.17 142.835 95.335 167.166 119 191c-24.998-7.835-47.499-25.166-67.335-51.994-19.828-26.836-29.83-52.837-29.83-78.003 0-14 2.834-25.504 8.333-34.334 5.499-8.999 13.83-15.67 24.998-19.836zm133.67 136.34c.337.995 1.004 2.496 1.999 4.832 2.007 5.5 3.002 8.662 3.002 9.328 0 11.335-3.829 21-11.335 29.004-7.497 7.995-16.994 12.001-28.826 12.001-11.672 0-26.507-17.17-44.336-51.336-3.331-6.165-5.667-10.829-7.337-14.169-11.166-21.498-19.996-41.83-26.828-61-6.84-19.33-10.34-33.33-10.34-42 0-7.161 1.34-12.997 3.837-17.332 2.665-4.495 6.165-6.662 10.331-6.662 13.334 0 27.671 5 42.666 14.826 15.172 10.002 25.166 21.169 30.167 33.507l37 89z"/></glyph><glyph id="glyph3440" unicode="i" horiz-adv-x="148"><path id="path3442" d="M136.33 336.83c0-3.5 1.333-6.663 4.166-9.496s6.005-4.167 9.505-4.167c6.165 0 12.001 3.5 17.163 10.331 5.17 6.832 7.835 14.33 7.835 22.501 0 3.83-1.501 7.16-4.335 9.994-2.994 2.834-6.494 4.167-10.331 4.167-6.502 0-12.17-3.5-16.834-10.331-4.832-6.832-7.169-14.498-7.169-23zm22.999-31.668c-10.5 0-18.993 2.665-25.832 8.004-6.831 5.498-10.331 12-10.331 19.828 0 14.337 3.669 26.17 11.166 35.674 7.498 9.496 17.171 14.16 29.004 14.16 9.328 0 17.163-2.834 23.328-8.502 6.174-5.659 9.336-12.828 9.336-21.329 0-13.005-3.669-24.17-10.998-33.667-7.337-9.496-15.838-14.169-25.672-14.169zm-55.334-113.16h-21L37.166 69.832c-3.331-7.835-5.667-14.666-7.169-20.494-1.5-5.836-2.167-11.175-2.167-16.167 0-8.67 1.999-15.501 6.165-20.173 4.006-4.833 9.673-7.16 16.834-7.16.666 0 1.67.16 3.171.497 1.333.33 2.336.667 2.665 1.004-3.002 3.829-5.17 7.666-6.663 11.495a28.732 28.732 0 00-2.167 10.998c0 4.166.666 9.167 1.999 15.004 1.332 5.996 3.002 11.664 5.33 17.163l48.83 130zm29.838 12.161L74.165 42.503c-1.83-4.664-3.331-8.333-4.166-10.998-.835-2.834-1.164-5.001-1.164-6.663 0-2.833.498-5 1.501-6.502.995-1.501 2.328-2.168 3.83-2.168 3.997 0 9.166 1.83 15.67 5.837 6.493 3.828 14.16 9.833 22.998 17.998l8.333-9.337c-11.664-12-23.336-21.169-35.168-27.662C74.335-3.494 63.667-6.825 54.33-6.825c-12.161 0-21.666 3.331-28.666 9.833-7 6.494-10.5 15.332-10.5 26.828 0 9.008 3.17 23.007 9.673 42 .995 2.168 1.661 3.838 1.999 4.841l48.334 127.49h58.665z"/></glyph><glyph id="glyph3444" unicode="d" horiz-adv-x="293"><path id="path3446" d="M357.83 506l-189-439.16c-2.336-4.84-3.998-10.34-5.17-16.167C162.496 44.837 162 39.338 162 34.168c0-9.167 2.167-16.167 6.333-21 4.327-4.833 9.994-7.329 17.163-7.329 0 .995-.497 2.496-1.5 4.327-2.666 5.836-3.998 10.17-3.998 12.667 0 4.672.497 9.336 1.5 14.169.996 5 2.497 9.504 4.496 13.67l189.01 443.49c6.494 15.67 13.325 29.333 20.663 41.006 7.337 11.832 15.67 22.66 25.166 32.832-14-2-25.504-7-34.502-15.004-8.83-7.996-18.335-23.665-28.498-47.001zM55.16 6.84a62.77 62.77 0 00-7.169 17.002c-1.492 5.996-2.159 12.667-2.159 20.165 0 24.002 6.334 48.671 18.832 73.668 12.5 25.166 30.665 49.497 54.33 73.331-24.998-7.835-47.499-25.166-67.335-51.994-19.828-26.836-29.83-52.837-29.83-78.003 0-14 2.834-25.504 8.333-34.334 5.499-8.999 13.83-15.67 24.998-19.836zm134.67 136.34c1.332 2.834 2.336 5.499 3.002 7.995.667 2.505.996 4.504.996 6.165 0 11.006-3.83 20.671-11.495 28.835-7.667 8.164-17.171 12.17-28.666 12.17-11.672 0-26.507-17.17-44.336-51.336-3.332-6.165-5.837-10.829-7.338-14.169-11.166-21.498-19.996-41.83-26.828-61-6.84-19.33-10.34-33.33-10.34-42 0-7.161 1.341-12.997 3.838-17.332 2.665-4.495 6.165-6.663 10.33-6.663 13.006 0 27.166 5.002 42.498 15.164 15.34 10.002 25.335 21.17 30.336 33.17l38.002 89.001zM149.829 27.84c-13.663-12.001-26.667-20.663-38.837-25.832-12.161-5.161-25.326-7.835-39.326-7.835-18.504 0-33.17 6.174-44.167 18.335-10.837 12.17-16.336 28.666-16.336 49.497 0 34.502 15.332 68.001 45.837 100.34 30.665 32.504 61.161 48.671 91.826 48.671 12.667 0 24.002-3.34 34.005-9.834 9.834-6.502 16.665-14.835 20.165-25.335l142.17 332c10.669 26.161 22.67 44.496 35.835 55.165 13.165 10.837 29.83 16.167 50.003 16.167.329 0 1.332-.168 2.994-.497 4.504-.338 9.336-.506 14.169-.506-6.165-6.832-12.836-16.167-19.836-28-7-11.993-13.334-24.83-19.161-38.83l-201.34-469.5c-1.501-3.5-2.834-7-3.5-10.668-.835-3.5-1.333-7-1.333-10.163 0-2.336.498-3.998 1.333-5.17.666-1.164 1.999-1.661 3.5-1.661 7.506 0 19.667 9.167 36.172 27.662l2.994 3.002 7.835-7.835c-12.996-16.496-24.67-27.83-34.662-33.836-10.171-5.996-21.506-8.999-34.173-8.999-11.495 0-19.996 2.834-25.993 8.333-5.836 5.507-9.168 13.84-10.171 25.335z"/></glyph><glyph id="glyph3448" unicode="h" horiz-adv-x="303"><path id="path3450" d="M227.17 197.83a56.13 56.13 0 003.66-9.328c.835-3.002 1.172-5.667 1.172-8.332 0-2.336-.337-4.672-1.003-7.337-.666-2.665-1.662-5.5-2.834-8.83L190.163 69.83c-3.66-8.5-6.165-15.5-7.666-20.83-1.493-5.33-2.168-9.666-2.168-12.837 0-10.5 1.84-18.166 5.339-22.999 3.669-4.832 9.167-7.328 16.665-7.328.666 0 1.67.16 3.331.497 1.67.329 2.834.498 3.5.498-3.331 3.837-5.498 7.506-6.831 11.006-1.333 3.331-1.999 7.329-1.999 11.993 0 4.166.666 9.007 1.999 14.506a104.046 104.046 0 005.836 17.66L247 155.333a32.6 32.6 0 012.335 7.168c.498 2.665.666 5.5.666 8.333 0 7.497-1.67 13.334-5.17 17.33-3.33 4.167-9.327 7.338-17.66 9.666zM3 0l193 502c9.336 25.664 21.169 44.336 35 55.831 14 11.504 32.166 17.34 54.17 17.34h11.832c-7.498-9.167-14.337-19.001-20.334-29.501-6.005-10.669-12.001-23.505-17.837-38.837l-130.83-342.83c20.005 16.328 37.167 28.329 51.834 35.835 14.666 7.498 27.831 11.166 39.503 11.166 15.999 0 28.666-3.837 38.331-11.672 9.496-7.826 14.337-18.326 14.337-31.331 0-9.496-4.006-23.496-12.17-42l-1.004-2.496-33.667-81.503c-1.492-3.67-2.825-6.832-3.66-9.497-.835-2.833-1.172-5.338-1.172-7.666 0-2.505.666-4.672 2.007-6.334 1.164-1.5 2.825-2.336 4.833-2.336 3.162 0 7.329 1.333 12.499 4.335 5 2.994 13.83 9.497 26.499 19.5l7.835-9.337c-11.335-12-23.167-21.169-35.168-27.662-12.001-6.502-22.83-9.834-32.664-9.834-12.001 0-21.506 3.332-28.506 9.834-7 6.494-10.5 15.332-10.5 26.828 0 10.002 3.837 24.67 11.672 43.838.666 1.662 1.163 2.834 1.492 3.5l34.671 84.995a153.1 153.1 0 014.664 11.841c1.172 3.5 1.67 5.828 1.67 7.16-.337 5.5-1.164 9-2.496 10.5-1.173 1.502-4.504 2.168-9.674 2.168-17.33 0-36.83-9.168-58.665-27.334s-37.167-39.335-46.335-63.497L65.001.004H3.005zm40.996 14.169l182.17 474.66c4.504 12.667 10.669 25.166 17.998 37.496 7.506 12.338 16.505 24.837 26.836 37.673-14-2.007-26.001-8.172-36.003-18.335-10.163-10.331-18.993-25.504-26.828-45.668L20.999 14.165h22.999z"/></glyph><glyph id="glyph3452" unicode="c" horiz-adv-x="217"><path id="path3454" d="M57.164 8.83c-4.166 6.174-7.329 12.507-9.167 19.001-2 6.502-2.994 15.004-2.994 25.335 0 17.998 3.997 36.003 12 54.33 7.996 18.175 24.332 44.167 49 77.674-26.337-18.006-47-37.673-61.835-59.34-14.835-21.666-22.164-42.995-22.164-63.835 0-13.325 2.994-24.5 8.83-33.499 5.836-8.83 14.666-15.5 26.33-19.667zM190.994 195v-1.004c0-5-4.832-9.665-14.498-14.498-9.496-4.672-14.337-10.837-14.337-18.335 0-4.832 1.67-8.838 5.17-12.17 3.331-3.162 7.666-4.832 12.836-4.832 7.16 0 12.996 2.665 17.33 7.835 4.504 5.17 6.663 11.832 6.663 19.996 0 5.17-.995 9.505-3.162 13.173-2.168 3.5-5.499 6.831-10.002 9.834zM180.165 44c-14.337-17.998-28.835-30.834-43.838-38.829-14.995-8.004-32.166-12-51.328-12-23.336 0-41.84 5.995-55.173 17.828C16.492 22.831 9.83 39.167 9.83 60c0 35.168 16.834 69.173 50.501 101.84 33.667 32.832 68.33 49.168 103.84 49.168 17.829 0 32.166-4.166 42.826-12.667 10.837-8.501 16.167-19.836 16.167-34.165 0-10.17-3.66-18.504-10.998-25.166-7.337-6.67-16.665-10.002-28-10.002-10.5 0-18.832 2.834-25.335 8.501-6.502 5.668-9.834 12.996-9.834 21.826 0 10.002 4.335 18.175 13.005 24.171 8.502 5.997 12.828 9.497 12.828 10.5 0 1.501-.995 2.665-2.833 3.163-2 .506-5.668.835-10.83 1.172-15.837 0-31.001-11.335-45.33-34.165l-1.004-1.501c-14.666-23.834-26.17-47.17-34.334-70.337C72.167 69.17 68 49.173 68 32.171c0-9.336 2.168-16.167 6.334-20.165C78.5 7.84 85.829 5.841 96.329 5.841c11.672 0 23.834 3.829 36.5 11.664 12.837 7.835 25.167 19.001 37.168 33.33l10.17-6.831z"/></glyph><glyph id="glyph3456" unicode="a" horiz-adv-x="287"><path id="path3458" d="M55.165 6.831a62.77 62.77 0 00-7.169 17.002c-1.492 5.997-2.159 12.667-2.159 20.165 0 24.002 6.334 48.671 18.832 73.668 12.5 25.166 30.665 49.497 54.33 73.331-24.998-7.835-47.499-25.166-67.335-51.994C31.836 112.167 21.834 86.166 21.834 61c0-14 2.834-25.504 8.333-34.334 5.499-8.999 13.83-15.67 24.998-19.836zm160.67 184.17l-47.001-124.16c-2.168-6.502-3.998-12.507-5.17-17.837-.995-5.33-1.661-10.33-1.661-14.835 0-8.83 1.999-15.5 6.165-20.334 3.997-4.664 10.002-7 17.829-7-.33.667-.827 1.67-1.493 2.834-3.002 6.005-4.335 10.331-4.335 13.165 0 4.335.498 8.838 1.333 13.671a66.74 66.74 0 004.495 14.169l51.673 140.33h-21.835zm-20.165-19.996c-4.166 8.501-10.002 15.164-17.5 19.996-7.506 4.833-15.67 7.338-24.5 7.338-11.335 0-26.836-18.335-46.335-55.165a342.592 342.592 0 01-5.339-10.34C90.83 112.34 82 92.167 75.168 72.499c-6.84-19.66-10.34-33.996-10.34-42.666 0-7.16 1.341-12.996 3.838-17.331 2.665-4.496 6.165-6.663 10.33-6.663 13.672 0 28.169 5.161 43.67 15.661 15.502 10.34 25.167 21.169 29.165 32.672l43.838 116.83zm-45.837-143.17c-13.663-12-26.667-20.663-38.837-25.832C98.835-3.158 85.67-5.832 71.67-5.832c-18.504 0-33.17 6.174-44.167 18.335C16.666 24.673 11.167 41.17 11.167 62c0 34.84 15.164 68.507 45.668 100.67 30.496 32.166 61.996 48.334 94.997 48.334 9.665 0 18.672-2.167 26.836-6.333 8.164-4.167 15.999-10.67 23.496-19.5L208 203.17h61.001l-61-161.34c-1.67-3.5-2.835-7.169-3.67-10.83C203.496 27.164 203 23.833 203 21c0-2.336.497-3.998 1.332-5.17.835-1.164 2-1.662 3.67-1.662 7.497 0 19.498 9.168 36.163 27.662l2.834 3.003 7.835-7.835c-13.663-17.163-25.495-28.835-35.33-34.831-10.001-6.005-21.168-8.999-33.506-8.999-11.166 0-19.667 2.994-25.664 8.83s-9.497 14.337-10.5 25.832z"/></glyph><glyph id="glyph3460" unicode="e" horiz-adv-x="223"><path id="path3462" d="M56.168 7.835c-4.166 5.828-7.337 12.33-9.167 19.33-2 7-3.003 15.67-3.003 26 0 17.67 3.837 35.169 11.504 52.838 7.666 17.66 24.162 43.66 49.497 78.164-26.667-17.837-47.33-37.496-61.996-58.834C28.337 103.996 21 82.836 21 61.996c0-13.663 3.003-24.998 8.999-34.165C36.163 18.663 44.833 12 56.168 7.835zm19.161 73.33c36.003 10.67 65.504 24.67 88.503 42 22.83 17.172 34.334 33.5 34.334 48.832 0 7.835-3.5 14.169-10.5 19-7 4.833-16.167 7.338-27.502 7.338-14.329 0-26.996-7-37.834-21-10.829-14-26.499-46.006-47.001-96.169zM179.169 44C164.503 26 149.668 13.165 134.673 5.169c-14.835-8.003-31.837-12-50.67-12-23.496 0-41.831 5.996-55.165 17.829-13.334 11.832-20.005 28.168-20.005 49 0 35.168 16.834 69.173 50.501 101.84 33.667 32.832 68.338 49.168 103.84 49.168 17.837 0 32.166-4.166 42.835-12.667 10.829-8.501 16.167-19.836 16.167-34.165 0-16.673-11.166-32.335-33.667-47.17s-61.17-31.837-116.17-50.998C70.34 58.17 68.999 51.5 68.173 46.17 67.338 40.84 67 36.168 67 32.17c0-9.336 2.167-16.167 6.333-20.165C77.5 7.839 84.838 5.84 95.338 5.84c11.664 0 23.665 3.829 35.835 11.326 12.161 7.506 24.66 18.672 37.665 33.667l10.331-6.831z"/></glyph><glyph id="glyph3464" unicode="n" horiz-adv-x="307"><path id="path3466" d="M228.83 198.17a44.677 44.677 0 003.002-8.67 43.238 43.238 0 001.004-9.328c0-3.002-.169-5.836-.675-8.67-.497-2.664-1.332-5.17-2.327-7.497l-39.006-94.17c-3.66-8.502-6.165-15.502-7.667-20.832-1.492-5.33-2.159-9.665-2.159-12.836 0-10.163 1.83-17.66 5.66-22.83 3.668-5.001 9.504-7.498 17.34-7.498.666 0 1.66.16 3.33.498 1.67.329 2.834.498 3.5.498-3.668 4.166-6.164 8.172-7.665 11.672-1.502 3.66-2.168 7.329-2.168 11.326 0 3.5.666 8.003 2.168 13.67 1.5 5.5 3.668 11.665 6.662 18.496L248 154.668c1.164 3.331 2.168 6.333 2.834 8.998.666 2.834.995 5.17.995 7.17 0 7.497-1.661 13.333-5.161 17.33-3.332 4.166-9.337 7.506-17.837 10.002zm-201-184h19.001L104.829 166c1.67 4.832 2.834 8.164 3.34 10.002.497 1.83.666 3.163.666 4.166 0 6.165-1.501 10.5-4.672 13.165-2.994 2.665-8.502 4.166-16.328 4.495 1.163-2.665 2.159-5.161 2.833-7.666.667-2.496.996-4.166.996-5.161 0-2.834-.996-7.337-2.834-13.165-.33-1.333-.666-2.336-.995-3.003L27.829 14.163zM12.169.001l63.995 167.33c1.501 3.669 2.834 6.831 3.669 9.336.835 2.665 1.164 4.833 1.164 6.334 0 2.994-.498 5.161-1.662 6.662-1.172 1.502-2.834 2.168-5.17 2.168-5.498 0-18.166-9.834-38.002-29.83l-6.494-6.334-8.67 9.328c15.333 17.669 28.169 29.67 38.838 36.172C70.337 207.66 81.832 211 94.17 211c10.829 0 19.828-3.5 26.996-10.5 7.168-7 10.669-16.336 10.669-27.671 0-2.328 0-4.167-.17-5.5-.168-1.163-.497-2.335-.834-3.33 17.669 14.994 34.334 26.666 50.003 34.83 15.83 8.164 29.501 12.17 41.334 12.17 15.501 0 28.329-4.006 37.994-12 9.834-8.004 14.675-18.336 14.675-31.003 0-9.496-3.837-23.336-11.672-41.662l-1.501-2.833-33.667-81.503c-1.662-3.669-2.994-6.832-3.83-9.497-.834-2.833-1.163-5.338-1.163-7.666 0-2.505.498-4.672 1.493-6.333 1.003-1.502 2.505-2.337 4.335-2.337 3.331 0 7.506 1.333 12.499 4.335 5.001 2.994 14 9.497 26.667 19.5l7.835-9.337c-11.664-12-23.336-21.169-35-27.662C229.339-3.5 218.67-6.83 208.837-6.83c-12.001 0-21.506 3.33-28.506 9.833-7 6.494-10.5 15.332-10.5 26.828 0 6.174.835 12.667 2.673 19.507 1.83 6.832 5.001 16 9.496 27.831l35.666 84.834c2 4.664 3.5 8.662 4.673 12.001 1.164 3.5 1.661 5.828 1.661 7.16-.329 5.5-1.164 9-2.496 10.5-1.173 1.502-4.504 2.168-9.665 2.168-17.67 0-36.838-8.83-57.838-26.33-21-17.669-36.332-39.166-46.166-64.501L68.838 0H12.172z"/></glyph><glyph id="glyph3468" unicode="o" horiz-adv-x="227"><path id="path3470" d="M57.003 7.835c-4.166 7.168-7.337 14.329-9.167 21.666-2 7.329-3.003 15.999-3.003 25.664 0 17.002 5.836 37.505 17.331 61.667 11.504 24.002 27.831 49.497 48.671 76.165-26.17-12.996-47.499-31.66-64.003-55.662-16.665-24.171-24.998-48.671-24.998-73.331 0-14.666 3.163-26.836 9.328-36.67 6.173-9.834 14.835-16.336 25.84-19.5zm10.829 24.33c0-8.669 1.67-15.163 5.17-19.17 3.331-4.165 8.661-6.164 15.83-6.164 24.17 0 46.335 17.33 66.668 51.834 20.334 34.502 30.496 69.333 30.496 104.5 0 12-2.994 21-8.83 26.667-5.836 5.667-15.004 8.501-27.334 8.501-12.001 0-21.33-3.5-28-10.669-6.663-7.168-16.336-27.502-29.164-60.664-9-23.834-15.501-42.835-19.17-57.332-3.83-14.506-5.668-27.005-5.668-37.505zM75.169-6.83c-19.499 0-35.168 5.996-46.672 17.998-11.495 12.17-17.33 28.337-17.33 48.83 0 37.168 14.336 71.67 43.002 103.34 28.666 31.83 59.83 47.668 93.833 47.668 21.995 0 38.997-5.499 50.501-16.673 11.495-10.998 17.331-27.165 17.331-48.325 0-33.507-14.666-67.335-44.167-101.51C142.167 10.332 110-6.831 75.17-6.831z"/></glyph><glyph id="glyph3472" unicode="t" horiz-adv-x="175"><path id="path3474" d="M173.84 368.16L45.01 69.83c-3.331-8.164-5.836-14.995-7.337-20.831-1.662-5.667-2.497-10.331-2.497-13.831 0-8.838 2.328-15.67 6.832-20.831 4.503-5.001 10.998-7.506 19-7.506h5.997c-3.66 3.5-6.165 7.506-7.666 11.672-1.501 4.327-2.168 9.834-2.168 16.665 0 3.829.506 7.995 1.67 12.499 1.164 4.335 2.834 9.167 5.17 14.329l132.83 306.17h-22.999zm-22.004-164h46.503L192.005 190h-45.997L83 42c-1.492-3.669-2.825-6.831-3.66-9.496-.835-2.834-1.172-5.001-1.172-6.671 0-2.497.506-4.664 1.67-6.334 1.164-1.661 2.833-2.496 5.17-2.496 4.495 0 14.994 6.165 31.161 18.166 3.332 2.167 5.668 3.829 6.832 4.832l7.835-9.336C118.835 18.664 107.002 9.496 95.17 3.003 83.506-3.499 73.175-6.831 64.008-6.831c-13.005 0-23.336 3.332-30.834 9.994-7.506 6.671-11.166 15.838-11.166 27.502 0 6.005 1.163 12.836 3.331 20.502 2.328 7.835 5.667 16.496 9.834 26.001l48.83 112.83h-42l5.837 14.16h42l77.168 177.67h63l-78.172-177.67z"/></glyph><glyph id="glyph3476" unicode="s" horiz-adv-x="225"><path id="path3478" d="M121.17 11.166c10.002 1.67 18.166 6.165 24.331 13.502 6.165 7.329 9.336 15.999 9.336 26.161 0 15.341-11.664 33.836-34.83 55.671-23.337 21.835-35 40.001-35 54.667 0 3.669.497 7.835 1.492 12.667 1.003 5.001 2.336 10.331 4.335 16.167-8.501-1.839-14.995-6.005-19.828-12.499-4.673-6.334-7-14.506-7-24.669 0-15.838 11.166-34.671 33.499-56.168 22.164-21.498 33.33-39.335 33.33-53.664 0-5.667-.835-11.006-2.497-16.167-1.5-5.17-4.006-10.5-7.168-15.67zM82.004-6.832c-22.999 0-42.168 5.828-57.332 17.331C9.5 22.003 2.002 35.834 2.002 51.833c0 10.998 3.331 20.334 10.002 27.831C18.667 87.17 26.999 90.83 37.17 90.83c9.665 0 17.669-2.665 23.665-7.835 6.005-5.161 8.999-12.16 8.999-21 0-11.326-3.998-20.494-12.001-27.334C49.838 27.83 45.84 23.495 45.84 22.002c0-5.338 2.994-9.505 9.159-12.507 6.005-3.163 14.337-4.664 25.175-4.664 13.325 0 23.328 2.834 29.999 8.501 6.662 5.668 9.994 14.33 9.994 25.664 0 13.334-11.326 30.673-34.165 51.834-22.83 21.17-34.165 40.5-34.165 58.168 0 18.832 7.666 33.836 23.167 45.17 15.5 11.166 36.164 16.834 62.165 16.834 22.5 0 40.836-4.832 55.165-14.337 14.337-9.664 21.506-21.834 21.506-36.5 0-9.994-3.003-17.998-9.008-23.665-5.996-5.668-14.329-8.502-24.66-8.502-10.002 0-18.166 2.336-24.17 7.169-5.997 4.664-9 10.837-9 18.664 0 7.506 2.505 14.835 7.498 22.004 5.002 7.169 7.667 11.335 7.667 12.33 0 3.837-2 6.67-5.997 8.501-3.837 1.839-10.163 2.665-19 2.665-10.332 0-18.336-2.496-23.835-7.497-5.499-5.17-8.332-12.001-8.332-20.831 0-11.672 11.504-28.498 34.502-50.332 22.83-21.835 34.334-41.334 34.334-58.673 0-19.828-8.502-36.332-25.335-49.33C131.502-.335 109.338-6.83 82.004-6.83zm88.832 200.83c.337-1.004.835-2.336 1.333-4.166.497-1.83.666-3.003.666-3.669 0-1.332-2.328-4.832-6.832-10.5-4.503-5.836-6.83-11.166-6.83-16.496 0-5.499 1.66-10.002 4.832-13.67 3.331-3.5 7.168-5.331 11.832-5.331 5.17 0 9.496 1.999 12.836 6.165 3.5 3.998 5.161 9.336 5.161 15.83 0 6.502-1.999 12.507-5.828 17.837-4.006 5.33-9.673 10.002-17.17 14zm-140-171c-.337 1.501-.666 3.002-.835 4.335-.169 1.332-.169 2.496-.169 3.5 0 5.17 3.003 10.669 9.008 16.496 5.996 5.836 8.998 11.166 8.998 15.67 0 5.001-1.332 8.83-3.837 11.832-2.665 2.834-6.165 4.335-10.829 4.335-5.507 0-9.834-2.168-13.173-6.671-3.163-4.327-4.832-10.163-4.832-17.331 0-6.165 1.172-11.832 3.668-16.834 2.505-5.001 6.334-10.163 12.001-15.332z"/></glyph><glyph id="glyph3480" unicode="v" horiz-adv-x="243"><path id="path3482" d="M173.67 169c0-5.001 1.333-8.67 4.166-11.335 2.834-2.505 6.503-3.837 10.998-3.837 5.836 0 10.5 2.504 14 7.506 3.34 5.161 5.001 11.993 5.001 20.83 0 6.503-.995 11.167-3.162 13.832-1.999 2.833-5.668 4.166-11.006 4.166-5.828 0-10.66-2.834-14.33-8.501-3.837-5.668-5.667-13.334-5.667-22.661zm-89.667 22.999L36.007 67.829c-2.168-5.161-3.837-9.665-4.84-13.663C30.17 50.329 29.672 46.5 29.672 43c0-7.835 2-14.666 5.828-20.334 4.006-5.667 10.171-10.669 18.672-14.835-1.172 3.5-2.336 6.831-3.171 10.002-.835 2.994-1.164 5.659-1.164 7.995 0 5.836.169 10.837.666 15.004.498 3.998 1.502 7.835 2.665 11.335l53.664 139.83h-22.83zm52.171 12.161L76.168 46.83l-.498-.995c-4.503-12.001-6.83-20.334-6.83-24.837 0-4.833 1.83-8.67 5.667-11.335 3.66-2.497 8.83-3.83 15.332-3.83 30.496 0 59.162 14.827 85.66 44.666 26.508 29.83 40.837 64.83 43.173 105.33-4.504-6.165-9.168-10.5-13.671-12.996-4.496-2.496-9.994-3.669-16.167-3.669-8.502 0-14.995 3.003-19.667 8.839-4.833 5.827-7.16 14.16-7.16 24.829 0 11.672 3.162 21.337 9.327 28.835 6.174 7.497 14 11.166 23.336 11.166 13.502 0 23.336-4.335 29.67-12.996 6.334-8.501 9.496-21.835 9.496-39.672 0-44-15.67-82.827-46.832-116.5-31.33-33.667-68-50.501-109.83-50.501-19 0-33.499 4.335-43.838 13.165-10.163 8.83-15.332 21-15.332 36.67 0 4.495.835 9.994 2.665 16.328 1.839 6.333 4.504 14.169 8.004 23.665l46.503 121.17h61z"/></glyph><glyph id="glyph3484" unicode="r" horiz-adv-x="230"><path id="path3486" d="M212.83 191c-13.663-2.665-24.002-6.831-31.162-12.667-7.169-5.828-10.837-13.334-10.837-22.501 0-5.828 1.67-10.331 4.833-13.663 3.33-3.163 7.666-4.833 13.334-4.833 8.67 0 15.5 3.332 20.005 9.834 4.495 6.503 6.83 15.661 6.83 27.662 0 2.674-.168 5.339-.665 8.172-.506 2.665-1.333 5.33-2.337 7.995zM12.17 0l63.497 165.66c1.67 3.5 2.834 7 3.829 10.171 1.004 3.331 1.501 5.667 1.501 7.329 0 2.673-.497 4.503-1.661 5.836-1.173 1.332-2.834 1.999-5.17 1.999-3.5 0-7.835-1.83-12.996-5.668-5.001-3.66-15.501-13.494-31.5-29.5L21 165.161c15.164 17.5 28.168 29.501 38.837 36.003C70.337 207.66 81.832 211 94.171 211c9.16 0 16.665-3.17 23-9.336 6.164-6.165 9.664-14.337 10.66-24.33 9.167 10.997 18.84 19.498 29.34 25.165 10.331 5.667 21 8.501 31.66 8.501 13.334 0 24.171-4.006 32.504-12 8.333-8.004 12.5-18.167 12.5-31.003 0-12.996-3.83-23.496-11.496-31.668-7.675-8.164-17.508-12.16-29.5-12.16-11.336 0-19.837 2.664-25.336 7.994-5.499 5.5-8.332 13.334-8.332 23.665 0 10.171 3.5 18.841 10.5 26.338 7 7.498 16.328 12.5 28 14.666-.835.33-2.337.667-4.167.996-1.67.337-4.503.506-8.5.506-13.335 0-26.668-8.173-39.833-24.331-13.165-16.336-25.672-40.001-37.336-70.835L68.838-.003H12.172zm15.661 14.169h19.001l57.998 152c1.67 4.832 2.834 8.164 3.34 9.994.497 1.67.666 3.171.666 4.166 0 6.174-1.501 10.5-4.672 13.173-2.994 2.497-8.502 3.998-16.328 4.327 1.163-2.665 2.159-5.162 2.833-7.498.667-2.496.996-4.166.996-5.161 0-3.003-.996-7.338-2.834-13.173-.33-1.333-.666-2.328-.995-2.994L27.83 14.173z"/></glyph><glyph id="glyph3488" unicode="p" horiz-adv-x="278"><path id="path3490" d="M137.17 8.67c21.835 0 44.505 17.163 67.832 51.328 23.505 34.173 35.168 66.17 35.168 95.832 0 9.336-1.83 17.002-5.33 22.67-3.669 5.667-8.839 9.505-15.67 11.504v-9.834c0-25.006-8.004-54.836-23.834-89.338-16-34.494-35.33-61.827-58.167-82.16zm-210.5-228.84h20.165L146.995 275h-19.996l-200.33-495.17zM128.83 171L88.829 71.668c-1.661-4.504-3.002-9.674-4.166-15.332-1.164-5.668-1.67-10.837-1.67-15.341 0-8.493 2.673-15.661 8.003-21.33 5.33-5.667 12.001-8.5 19.836-8.5 8.83 0 17.331 3.837 25.664 11.504 8.164 7.666 18.166 20.663 29.501 39.326 12.667 21.169 22.67 41.67 30 61.836 7.337 20.005 10.997 36.003 10.997 48.005 0 8.163-1.492 14.16-4.663 18.166-3.003 3.829-7.835 5.827-14.33 5.827-5.507 0-13.84-2.327-25.005-6.831-10.998-4.495-22.332-10.669-34.165-17.998zM69.828 24.84l-105-258.67h-55.662l210.83 523h55.662l-38.5-98.168c14.337 7.168 26.17 12.338 35.666 15.332 9.505 3.17 17.837 4.672 25.335 4.672 18.664 0 33.836-6.67 45.997-19.836 12.001-13.165 18.006-30.167 18.006-50.998 0-34.165-14.506-67.166-43.67-99.172C189.328 9.171 159.49-6.828 128.825-6.828c-11.664 0-22.67 2.834-33.001 8.333C85.661 7.003 76.992 14.839 69.823 24.84z"/></glyph><glyph id="glyph3492" unicode="u" horiz-adv-x="288"><path id="path3494" d="M99.998 190H82L29.669 52.67c-1.172-3.171-2.336-7.169-3.34-11.672-.995-4.495-1.493-8.661-1.493-12.161 0-5.499 1.493-10.331 4.664-14.169 3.163-3.829 7.498-6.831 13.502-8.83a36.566 36.566 0 00-1.5 6.165c-.338 2.167-.507 5.161-.507 8.999 0 3.331.506 7.497 1.67 12.996 1.164 5.338 2.505 10.669 4.166 15.838l53.166 140.17zm143 0H225L172.66 52.67c-1.164-3.5-2.328-7.666-3.331-12.338-.995-4.833-1.502-8.661-1.502-11.495 0-5.17 1.502-9.834 4.673-13.831 3.162-4.166 7.497-7.169 13.494-9.167-.666 1.332-1.164 2.994-1.493 5.161-.337 2.167-.506 5.499-.506 10.002 0 3.669.506 8.164 1.67 13.831 1.164 5.836 2.496 10.669 4.166 15.004l53.166 140.17zm30.834 14.16l-64.003-167c-.666-1.999-1.333-4.166-1.83-6.334-1.999-5.667-3.002-8.83-3.002-9.833 0-3.163.506-5.5 1.67-6.832 1.163-1.332 2.833-1.999 5.17-1.999 5.498 0 17.997 9.834 37.664 29.332l6.334 6.334 10.163-8.838c-14-16.834-26.667-28.666-38.002-35.497C216.5-3.34 204.5-6.838 191.832-6.838c-11.166 0-20.165 3.5-27.334 10.5-7.169 7-10.83 15.999-10.83 27.165 0 2.496.161 4.335.33 5.498.168 1.164.337 2.168.666 3.172-18.166-15.838-35.329-27.671-51.496-35.168C87.17-3.17 71.002-6.837 55.163-6.837c-13.334 0-23.665 3.33-31.002 9.833-7.329 6.494-10.998 15.332-10.998 26.828 0 4.166.498 8.839 1.67 14.17 1.164 5.17 3.5 12.835 7.169 22.837l53.166 137.33h55.662L68.834 40.991c-2.337-5.827-3.838-10.163-4.673-13.165-.826-2.833-1.164-5.161-1.164-6.831 0-4.504.835-7.666 2.665-9.496 1.84-1.839 5.002-2.674 9.505-2.674 17.331 0 36.332 9.007 57.164 26.836 20.671 17.837 36.003 39.335 45.837 64.501l39.495 104h56.168z"/></glyph></font>
</defs>
</svg>
